HDTV Adam Lambert - Evil in the Night (The X Factor Australia 2016) [HDTV-1080i]-fisherTW

NCURBAN

Well-Known Member
Administrative
May 25, 2016
3,360
4,162
113
Adam Lambert - Evil in the Night (The X Factor Australia 2016) [HDTV-1080i]-fisherTW



Gener: Pop
At: X Factor Australia
Date: 31 Oct, 2016

Code:
ormat                                   : MPEG-TS
File size                                : 254 MiB
Duration                                 : 5 min 45 s
Overall bit rate mode                    : Variable
Overall bit rate                         : 6 175 kb/s

Video
ID                                       : 833 (0x341)
Menu ID                                  : 1 (0x1)
Format                                   : AVC
Format/Info                              : Advanced Video Codec
Format profile                           : High@L4
Format settings, CABAC                   : Yes
Format settings, ReFrames                : 4 frames
Format settings, GOP                     : M=6, N=30
Codec ID                                 : 27
Duration                                 : 5 min 45 s
Bit rate                                 : 5 482 kb/s
Width                                    : 1 920 pixels
Height                                   : 1 080 pixels
Display aspect ratio                     : 16:9
Frame rate                               : 25.000 FPS
Color space                              : YUV
Chroma subsampling                       : 4:2:0
Bit depth                                : 8 bits
Scan type                                : MBAFF
Scan type, store method                  : Interleaved fields
Scan order                               : Top Field First
Bits/(Pixel*Frame)                       : 0.106
Stream size                              : 225 MiB (89%)

Audio
ID                                       : 835 (0x343)
Menu ID                                  : 1 (0x1)
Format                                   : AC-3
Format/Info                              : Audio Coding 3
Mode extension                           : CM (complete main)
Format settings, Endianness              : Big
Codec ID                                 : 6
Duration                                 : 5 min 45 s
Bit rate mode                            : Constant
Bit rate                                 : 384 kb/s
Channel(s)                               : 2 channels
Channel positions                        : Front: L R
Sampling rate                            : 48.0 kHz
Frame rate                               : 31.250 FPS (1536 spf)
Bit depth                                : 16 bits
Compression mode                         : Lossy
Stream size                              : 15.8 MiB (6%)
Language                                 : English

Download
You must reply before you can see the hidden data contained here.