HDTV Adele - MTV Unplugged 2009 (1080i-HDTV)

NCURBAN

Well-Known Member
Administrative
May 25, 2016
3,360
4,162
113
Adele - MTV Unplugged 2009 (1080i-HDTV)


Gener: Pop
Tour:
MTV Unplugged
At: New York City's Nyehaus
Date: 10/06/2009
Setlist:
  1. Right As Rain
  2. Melt My Heart To Stone
  3. Hometown Glory
  4. Cold Shoulder
  5. Chasing Pavements
Code:
Format                                   : MPEG-PS
File size                                : 2.54 GiB
Duration                                 : 20 min 22 s
Overall bit rate mode                    : Variable
Overall bit rate                         : 17.8 Mb/s
Law rating                               : TV-PG

Video
ID                                       : 224 (0xE0)
Format                                   : MPEG Video
Format version                           : Version 2
Format profile                           : Main@High
Format settings, BVOP                    : Yes
Format settings, Matrix                  : Custom
Format settings, GOP                     : M=2, N=14
Format settings, picture structure       : Frame
Duration                                 : 20 min 22 s
Bit rate mode                            : Variable
Bit rate                                 : 17.1 Mb/s
Maximum bit rate                         : 38.8 Mb/s
Width                                    : 1 920 pixels
Height                                   : 1 080 pixels
Display aspect ratio                     : 16:9
Frame rate                               : 29.970 (30000/1001) FPS
Standard                                 : Component
Color space                              : YUV
Chroma subsampling                       : 4:2:0
Bit depth                                : 8 bits
Scan type                                : Interlaced
Scan order                               : Bottom Field First
Compression mode                         : Lossy
Bits/(Pixel*Frame)                       : 0.275
Time code of first frame                 : 00:00:00;00
Time code source                         : Group of pictures header
Stream size                              : 2.43 GiB (96%)
Color primaries                          : BT.709
Transfer characteristics                 : BT.709
Matrix coefficients                      : BT.709

Audio
ID                                       : 189 (0xBD)-128 (0x80)
Format                                   : AC-3
Format/Info                              : Audio Coding 3
Mode extension                           : CM (complete main)
Format settings, Endianness              : Big
Muxing mode                              : DVD-Video
Duration                                 : 20 min 22 s
Bit rate mode                            : Constant
Bit rate                                 : 384 kb/s
Channel(s)                               : 2 channels
Channel positions                        : Front: L R
Sampling rate                            : 48.0 kHz
Frame rate                               : 31.250 FPS (1536 spf)
Bit depth                                : 16 bits
Compression mode                         : Lossy
Stream size                              : 56.0 MiB (2%)
Download
You must reply before you can see the hidden data contained here.
 

rowlinglooni

New Member
Registered
Apr 2, 2019
4
0
1
30
Adele - MTV Unplugged 2009 (1080i-HDTV)


Setlist:

  1. Right As Rain
    Melt My Heart To Stone
    Hometown Glory
    Cold Shoulder
    Chasing Pavements
Code:
Format                                   : MPEG-PS
File size                                : 2.54 GiB
Duration                                 : 20 min 22 s
Overall bit rate mode                    : Variable
Overall bit rate                         : 17.8 Mb/s
Law rating                               : TV-PG

Video
ID                                       : 224 (0xE0)
Format                                   : MPEG Video
Format version                           : Version 2
Format profile                           : Main@High
Format settings, BVOP                    : Yes
Format settings, Matrix                  : Custom
Format settings, GOP                     : M=2, N=14
Format settings, picture structure       : Frame
Duration                                 : 20 min 22 s
Bit rate mode                            : Variable
Bit rate                                 : 17.1 Mb/s
Maximum bit rate                         : 38.8 Mb/s
Width                                    : 1 920 pixels
Height                                   : 1 080 pixels
Display aspect ratio                     : 16:9
Frame rate                               : 29.970 (30000/1001) FPS
Standard                                 : Component
Color space                              : YUV
Chroma subsampling                       : 4:2:0
Bit depth                                : 8 bits
Scan type                                : Interlaced
Scan order                               : Bottom Field First
Compression mode                         : Lossy
Bits/(Pixel*Frame)                       : 0.275
Time code of first frame                 : 00:00:00;00
Time code source                         : Group of pictures header
Stream size                              : 2.43 GiB (96%)
Color primaries                          : BT.709
Transfer characteristics                 : BT.709
Matrix coefficients                      : BT.709

Audio
ID                                       : 189 (0xBD)-128 (0x80)
Format                                   : AC-3
Format/Info                              : Audio Coding 3
Mode extension                           : CM (complete main)
Format settings, Endianness              : Big
Muxing mode                              : DVD-Video
Duration                                 : 20 min 22 s
Bit rate mode                            : Constant
Bit rate                                 : 384 kb/s
Channel(s)                               : 2 channels
Channel positions                        : Front: L R
Sampling rate                            : 48.0 kHz
Frame rate                               : 31.250 FPS (1536 spf)
Bit depth                                : 16 bits
Compression mode                         : Lossy
Stream size                              : 56.0 MiB (2%)
Download
***Hidden content cannot be quoted.***
i love you adele