HDTV Alessia Cara - Saturday Night live 2017 [HDTV-1080i]

NCURBAN

Well-Known Member
Administrative
May 25, 2016
3,347
3,610
113
Alessia Cara - Scars To Your Beautiful (Saturday Night live 2017) [HDTV-1080i]

[HIDE-REPLY]MEGA
[/HIDE-REPLY]

Alessia Cara - River Of Tears (Saturday Night live 2017) [HDTV-1080i]

[HIDE-REPLY]MEGA[/HIDE-REPLY]

Code:
Format                                   : MPEG-TS
File size                                : 925 MiB
Duration                                 : 5 min 11 s
Overall bit rate mode                    : Variable
Overall bit rate                         : 24.9 Mb/s
Movie name                               : Saturday Night Live
Law rating                               : TV-14 (DL)

Video
ID                                       : 513 (0x201)
Menu ID                                  : 1 (0x1)
Format                                   : AVC
Format/Info                              : Advanced Video Codec
Format profile                           : High@L4.1
Format settings, CABAC                   : Yes
Format settings, ReFrames                : 4 frames
Format settings, GOP                     : M=4, N=32
Codec ID                                 : 27
Duration                                 : 5 min 11 s
Bit rate                                 : 23.3 Mb/s
Width                                    : 1 920 pixels
Height                                   : 1 080 pixels
Display aspect ratio                     : 16:9
Frame rate                               : 29.970 (30000/1001) FPS
Color space                              : YUV
Chroma subsampling                       : 4:2:0
Bit depth                                : 8 bits
Scan type                                : Interlaced
Scan type, store method                  : Separated fields
Scan order                               : Top Field First
Bits/(Pixel*Frame)                       : 0.375
Stream size                              : 864 MiB (93%)
Color range                              : Full
Color primaries                          : BT.709
Transfer characteristics                 : BT.709
Matrix coefficients                      : BT.709

Audio
ID                                       : 514 (0x202)
Menu ID                                  : 1 (0x1)
Format                                   : AC-3
Format/Info                              : Audio Coding 3
Mode extension                           : CM (complete main)
Format settings, Endianness              : Big
Codec ID                                 : 129
Duration                                 : 5 min 11 s
Bit rate mode                            : Constant
Bit rate                                 : 384 kb/s
Channel(s)                               : 6 channels
Channel positions                        : Front: L C R, Side: L R, LFE
Sampling rate                            : 48.0 kHz
Frame rate                               : 31.250 FPS (1536 spf)
Bit depth                                : 16 bits
Compression mode                         : Lossy
Stream size                              : 14.2 MiB (2%)
Language                                 : English