FEED Alicia Keys - Blended Family (New Year's Eve with Carson Daly & Mel B 2016) [FEED-1080i]-ALANiS

NCURBAN

Well-Known Member
Administrative
May 25, 2016
3,360
4,185
113
Alicia Keys - Blended Family (New Year's Eve with Carson Daly & Mel B 2016) [FEED-1080i]-ALANiS


Gener: R&B, Soul
At: New Year's Eve with Carson Daly & Mel B 2016
Date: 31 Dec, 2016
Code:
Format                                   : Matroska
Format version                           : Version 4 / Version 2
File size                                : 805 MiB
Duration                                 : 4 min 30 s
Overall bit rate                         : 25.0 Mb/s
Encoded date                             : UTC 2017-01-02 22:32:30
Writing application                      : mkvmerge v7.7.0 ('Six Voices') 64bit built on Feb 28 2015 23:39:33
Writing library                          : libebml v1.3.1 + libmatroska v1.4.2

Video
ID                                       : 1
Format                                   : AVC
Format/Info                              : Advanced Video Codec
Format profile                           : High@L4.1
Format settings, CABAC                   : Yes
Format settings, ReFrames                : 4 frames
Codec ID                                 : V_MPEG4/ISO/AVC
Duration                                 : 4 min 30 s
Bit rate                                 : 22.8 Mb/s
Width                                    : 1 920 pixels
Height                                   : 1 080 pixels
Display aspect ratio                     : 16:9
Frame rate mode                          : Variable
Frame rate                               : 59.940 (60000/1001) FPS
Original frame rate                      : 29.970 (30000/1001) FPS
Color space                              : YUV
Chroma subsampling                       : 4:2:0
Bit depth                                : 8 bits
Scan type                                : Interlaced
Scan type, store method                  : Separated fields
Scan order                               : Top Field First
Bits/(Pixel*Frame)                       : 0.183
Stream size                              : 733 MiB (91%)
Default                                  : Yes
Forced                                   : No
Color range                              : Full
Color primaries                          : BT.709
Transfer characteristics                 : BT.709
Matrix coefficients                      : BT.709

Audio
ID                                       : 2
Format                                   : DTS
Format/Info                              : Digital Theater Systems
Format profile                           : MA / Core
Mode                                     : 16
Format settings, Endianness              : Big
Codec ID                                 : A_DTS
Duration                                 : 4 min 30 s
Bit rate mode                            : Variable / Constant
Bit rate                                 : 2 246 kb/s / 1 509 kb/s
Channel(s)                               : 6 channels
Channel positions                        : Front: L C R, Side: L R, LFE
Sampling rate                            : 48.0 kHz
Frame rate                               : 93.750 FPS (512 spf)
Bit depth                                : 16 bits
Compression mode                         : Lossless / Lossy
Delay relative to video                  : 107 ms
Stream size                              : 72.3 MiB (9%)
Language                                 : English
Default                                  : Yes
Forced                                   : No
Download
You must reply before you can see the hidden data contained here.