HDTV Alicia Keys - Great Performances (Landmarks Live 2017) [HDTV-1080i]

NCURBAN

Well-Known Member
Administrative
May 25, 2016
3,347
3,595
113
Alicia Keys - Great Performances (Landmarks Live 2017) [HDTV-1080i]




Gener: R&B/Soul
Concert: Landmarks
Date: Jan 20, 2017
Setlist:
  1. 28 Thousand Days
  2. Fallin
  3. Pawn It All
  4. Blended Family
  5. Holy War
  6. The Gospel
  7. Illusion Of Bliss
  8. New York
Code:
Format                                   : MPEG-TS
File size                                : 4.30 GiB
Duration                                 : 52 min 7 s
Overall bit rate mode                    : Variable
Overall bit rate                         : 11.8 Mb/s
Law rating                               : TV-PG

Video
ID                                       : 631 (0x277)
Menu ID                                  : 1 (0x1)
Format                                   : MPEG Video
Format version                           : Version 2
Format profile                           : Main@High
Format settings, BVOP                    : Yes
Format settings, Matrix                  : Default
Format settings, GOP                     : Variable
Format settings, picture structure       : Frame
Codec ID                                 : 2
Duration                                 : 52 min 7 s
Bit rate mode                            : Variable
Bit rate                                 : 11.0 Mb/s
Maximum bit rate                         : 80.0 Mb/s
Width                                    : 1 920 pixels
Height                                   : 1 080 pixels
Display aspect ratio                     : 16:9
Frame rate                               : 29.970 (30000/1001) FPS
Color space                              : YUV
Chroma subsampling                       : 4:2:0
Bit depth                                : 8 bits
Scan type                                : Interlaced
Scan order                               : Top Field First
Compression mode                         : Lossy
Bits/(Pixel*Frame)                       : 0.178
Time code of first frame                 : 00:00:00;00
Time code source                         : Group of pictures header
GOP, Open/Closed                         : Open
GOP, Open/Closed of first frame          : Closed
Stream size                              : 4.02 GiB (93%)
Color primaries                          : BT.709
Transfer characteristics                 : BT.709
Matrix coefficients                      : BT.709

Audio
ID                                       : 629 (0x275)
Menu ID                                  : 1 (0x1)
Format                                   : AC-3
Format/Info                              : Audio Coding 3
Mode extension                           : CM (complete main)
Format settings, Endianness              : Big
Codec ID                                 : 129
Duration                                 : 52 min 7 s
Bit rate mode                            : Constant
Bit rate                                 : 192 kb/s
Channel(s)                               : 2 channels
Channel positions                        : Front: L R
Sampling rate                            : 48.0 kHz
Frame rate                               : 31.250 FPS (1536 spf)
Bit depth                                : 16 bits
Compression mode                         : Lossy
Delay relative to video                  : 5 ms
Stream size                              : 71.6 MiB (2%)
Language                                 : English
Download
You must reply before you can see the hidden data contained here.
 
Last edited:
  • Like
Reactions: Wilson Filho