1. If this is your first visit, be sure to check out the FAQ by clicking the link above. You may have to register before you can access the full forum. Follow the link above to Register. To start viewing messages, select the forum that you want to visit from the selection below.
    Dismiss Notice

HDTV Alicia Keys - In Common + Interview + Hallelujah (2016) [HDTV-1080i]-HDMania

Discussion in 'Live Performances & Concerts' started by NCURBAN, Jun 26, 2016.

  1. NCURBAN

    NCURBAN Well-Known Member Administrative

    Joined:
    May 25, 2016
    Messages:
    2,728
    Likes Received:
    965
    Trophy Points:
    113
    Alicia Keys - In Common + Interview + Hallelujah (2016) [HDTV-1080i]-HDMania

    [​IMG]

    Code:
    Format                                   : MPEG-TS
    File size                                : 1.32 GiB
    Duration                                 : 25mn 3s
    Overall bit rate mode                    : Variable
    Overall bit rate                         : 7 556 Kbps
    
    Video
    ID                                       : 1830 (0x726)
    Menu ID                                  : 17713 (0x4531)
    Format                                   : AVC
    Format/Info                              : Advanced Video Codec
    Format profile                           : High@L4
    Format settings, CABAC                   : Yes
    Format settings, ReFrames                : 3 frames
    Format settings, GOP                     : M=4, N=16
    Codec ID                                 : 27
    Duration                                 : 25mn 3s
    Bit rate                                 : 6 536 Kbps
    Width                                    : 1 920 pixels
    Height                                   : 1 080 pixels
    Display aspect ratio                     : 16:9
    Frame rate                               : 25.000 fps
    Color space                              : YUV
    Chroma subsampling                       : 4:2:0
    Bit depth                                : 8 bits
    Scan type                                : MBAFF
    Scan order                               : Top Field First
    Bits/(Pixel*Frame)                       : 0.126
    Stream size                              : 1.14 GiB (86%)
    
    Audio #1
    ID                                       : 1831 (0x727)
    Menu ID                                  : 17713 (0x4531)
    Format                                   : MPEG Audio
    Format version                           : Version 1
    Format profile                           : Layer 2
    Codec ID                                 : 3
    Duration                                 : 25mn 3s
    Bit rate mode                            : Constant
    Bit rate                                 : 192 Kbps
    Channel(s)                               : 2 channels
    Sampling rate                            : 48.0 KHz
    Compression mode                         : Lossy
    Delay relative to video                  : 3ms
    Stream size                              : 34.4 MiB (3%)
    Language                                 : Italian
    
    Audio #2
    ID                                       : 1833 (0x729)
    Menu ID                                  : 17713 (0x4531)
    Format                                   : AC-3
    Format/Info                              : Audio Coding 3
    Mode extension                           : CM (complete main)
    Format settings, Endianness              : Big
    Codec ID                                 : 6
    Duration                                 : 25mn 3s
    Bit rate mode                            : Constant
    Bit rate                                 : 448 Kbps
    Channel(s)                               : 2 channels
    Channel positions                        : Front: L R
    Sampling rate                            : 48.0 KHz
    Compression mode                         : Lossy
    Delay relative to video                  : 31ms
    Stream size                              : 80.3 MiB (6%)
    Language                                 : oth

    Download
    Hidden Content:
    You must reply before you can see the hidden data contained here.
     
  2. Loading...