FEED Alicia Keys - The 2016 Breakthrough Prize Ceremony (FEED-1080i)-ALANIS

NCURBAN

Well-Known Member
Administrative
May 25, 2016
3,347
3,593
113
Alicia Keys - The 2016 Breakthrough Prize Ceremony (FEED-1080i)-ALANIS


Gener: R&B/Soul
At: The 2016 Breakthrough Prize Ceremony
Date: Dec, 2016
Code:
Format                                   : MPEG-TS
File size                                : 1.40 GiB
Duration                                 : 4 min 42 s
Overall bit rate mode                    : Variable
Overall bit rate                         : 42.7 Mb/s
Maximum Overall bit rate                 : 35.5 Mb/s

Video
ID                                       : 4113 (0x1011)
Menu ID                                  : 1 (0x1)
Format                                   : MPEG Video
Format version                           : Version 2
Format profile                           : Main@High
Format settings, BVOP                    : Yes
Format settings, Matrix                  : Default
Format settings, GOP                     : M=3, N=30
Codec ID                                 : 2
Duration                                 : 4 min 42 s
Bit rate mode                            : Variable
Bit rate                                 : 39.8 Mb/s
Maximum bit rate                         : 41.8 Mb/s
Width                                    : 1 280 pixels
Height                                   : 720 pixels
Display aspect ratio                     : 16:9
Frame rate                               : 59.940 (60000/1001) FPS
Color space                              : YUV
Chroma subsampling                       : 4:2:0
Bit depth                                : 8 bits
Scan type                                : Progressive
Compression mode                         : Lossy
Bits/(Pixel*Frame)                       : 0.720
Time code of first frame                 : 00:45:52;33
Time code source                         : Group of pictures header
Stream size                              : 1.31 GiB (93%)

Audio #1
ID                                       : 4352 (0x1100)
Menu ID                                  : 1 (0x1)
Format                                   : MPEG Audio
Format version                           : Version 1
Format profile                           : Layer 2
Codec ID                                 : 4
Duration                                 : 4 min 42 s
Bit rate mode                            : Constant
Bit rate                                 : 384 kb/s
Channel(s)                               : 2 channels
Sampling rate                            : 48.0 kHz
Compression mode                         : Lossy
Delay relative to video                  : -31 ms
Stream size                              : 12.9 MiB (1%)
Language                                 : English
Download
You must reply before you can see the hidden data contained here.
 
Last edited: