HDTV Ariana Grande - Break Free (America's Got Talent 2014) [HDTV-1080i]-Angle

NCURBAN

Well-Known Member
Administrative
May 25, 2016
3,347
3,618
113
Ariana Grande - Break Free (America's Got Talent 2014) [HDTV-1080i]-Angle



Code:
Format                                   : MPEG-TS
File size                                : 467 MiB
Duration                                 : 3mn 53s
Overall bit rate mode                    : Variable
Overall bit rate                         : 16.8 Mbps
Law rating                               : TV-PG (L)

Video
ID                                       : 3361 (0xD21)
Menu ID                                  : 1 (0x1)
Format                                   : MPEG Video
Format version                           : Version 2
Format profile                           : Main@High
Format settings, BVOP                    : Yes
Format settings, Matrix                  : Custom
Format settings, GOP                     : Variable
Format settings, picture structure       : Frame
Codec ID                                 : 2
Duration                                 : 3mn 53s
Bit rate mode                            : Variable
Bit rate                                 : 15.6 Mbps
Maximum bit rate                         : 24.0 Mbps
Width                                    : 1 920 pixels
Height                                   : 1 080 pixels
Display aspect ratio                     : 16:9
Active Format Description                : Full frame 16:9 image
Frame rate                               : 29.970 fps
Color space                              : YUV
Chroma subsampling                       : 4:2:0
Bit depth                                : 8 bits
Scan type                                : Interlaced
Scan order                               : Top Field First
Compression mode                         : Lossy
Bits/(Pixel*Frame)                       : 0.251
Time code of first frame                 : 00:00:00;00
Time code source                         : Group of pictures header
GOP, Open/Closed                         : Open
Stream size                              : 433 MiB (93%)

Audio
ID                                       : 3362 (0xD22)
Menu ID                                  : 1 (0x1)
Format                                   : AC-3
Format/Info                              : Audio Coding 3
Mode extension                           : CM (complete main)
Format settings, Endianness              : Big
Codec ID                                 : 129
Duration                                 : 3mn 53s
Bit rate mode                            : Constant
Bit rate                                 : 384 Kbps
Channel(s)                               : 6 channels
Channel positions                        : Front: L C R, Side: L R, LFE
Sampling rate                            : 48.0 KHz
Compression mode                         : Lossy
Delay relative to video                  : 18ms
Stream size                              : 10.7 MiB (2%)
Language                                 : English
Download
[HIDE-REPLY]MEGA[/HIDE-REPLY]
 
Last edited:

paraga

New Member
Registered
Aug 4, 2019
25
0
1
23
Ariana Grande - Break Free (America's Got Talent 2014) [HDTV-1080i]-Angle



Code:
Format                                   : MPEG-TS
File size                                : 467 MiB
Duration                                 : 3mn 53s
Overall bit rate mode                    : Variable
Overall bit rate                         : 16.8 Mbps
Law rating                               : TV-PG (L)

Video
ID                                       : 3361 (0xD21)
Menu ID                                  : 1 (0x1)
Format                                   : MPEG Video
Format version                           : Version 2
Format profile                           : Main@High
Format settings, BVOP                    : Yes
Format settings, Matrix                  : Custom
Format settings, GOP                     : Variable
Format settings, picture structure       : Frame
Codec ID                                 : 2
Duration                                 : 3mn 53s
Bit rate mode                            : Variable
Bit rate                                 : 15.6 Mbps
Maximum bit rate                         : 24.0 Mbps
Width                                    : 1 920 pixels
Height                                   : 1 080 pixels
Display aspect ratio                     : 16:9
Active Format Description                : Full frame 16:9 image
Frame rate                               : 29.970 fps
Color space                              : YUV
Chroma subsampling                       : 4:2:0
Bit depth                                : 8 bits
Scan type                                : Interlaced
Scan order                               : Top Field First
Compression mode                         : Lossy
Bits/(Pixel*Frame)                       : 0.251
Time code of first frame                 : 00:00:00;00
Time code source                         : Group of pictures header
GOP, Open/Closed                         : Open
Stream size                              : 433 MiB (93%)

Audio
ID                                       : 3362 (0xD22)
Menu ID                                  : 1 (0x1)
Format                                   : AC-3
Format/Info                              : Audio Coding 3
Mode extension                           : CM (complete main)
Format settings, Endianness              : Big
Codec ID                                 : 129
Duration                                 : 3mn 53s
Bit rate mode                            : Constant
Bit rate                                 : 384 Kbps
Channel(s)                               : 6 channels
Channel positions                        : Front: L C R, Side: L R, LFE
Sampling rate                            : 48.0 KHz
Compression mode                         : Lossy
Delay relative to video                  : 18ms
Stream size                              : 10.7 MiB (2%)
Language                                 : English
Download
***Hidden content cannot be quoted.***
hi
 

Sadsun0000

Member
Registered
Aug 1, 2019
53
0
6
31
Ariana Grande - Break Free (America's Got Talent 2014) [HDTV-1080i]-Angle



Code:
Format                                   : MPEG-TS
File size                                : 467 MiB
Duration                                 : 3mn 53s
Overall bit rate mode                    : Variable
Overall bit rate                         : 16.8 Mbps
Law rating                               : TV-PG (L)

Video
ID                                       : 3361 (0xD21)
Menu ID                                  : 1 (0x1)
Format                                   : MPEG Video
Format version                           : Version 2
Format profile                           : Main@High
Format settings, BVOP                    : Yes
Format settings, Matrix                  : Custom
Format settings, GOP                     : Variable
Format settings, picture structure       : Frame
Codec ID                                 : 2
Duration                                 : 3mn 53s
Bit rate mode                            : Variable
Bit rate                                 : 15.6 Mbps
Maximum bit rate                         : 24.0 Mbps
Width                                    : 1 920 pixels
Height                                   : 1 080 pixels
Display aspect ratio                     : 16:9
Active Format Description                : Full frame 16:9 image
Frame rate                               : 29.970 fps
Color space                              : YUV
Chroma subsampling                       : 4:2:0
Bit depth                                : 8 bits
Scan type                                : Interlaced
Scan order                               : Top Field First
Compression mode                         : Lossy
Bits/(Pixel*Frame)                       : 0.251
Time code of first frame                 : 00:00:00;00
Time code source                         : Group of pictures header
GOP, Open/Closed                         : Open
Stream size                              : 433 MiB (93%)

Audio
ID                                       : 3362 (0xD22)
Menu ID                                  : 1 (0x1)
Format                                   : AC-3
Format/Info                              : Audio Coding 3
Mode extension                           : CM (complete main)
Format settings, Endianness              : Big
Codec ID                                 : 129
Duration                                 : 3mn 53s
Bit rate mode                            : Constant
Bit rate                                 : 384 Kbps
Channel(s)                               : 6 channels
Channel positions                        : Front: L C R, Side: L R, LFE
Sampling rate                            : 48.0 KHz
Compression mode                         : Lossy
Delay relative to video                  : 18ms
Stream size                              : 10.7 MiB (2%)
Language                                 : English
Download
***Hidden content cannot be quoted.***