HDTV Ariana Grande - Interview (Good Morning America 2015) [HDTV-720p]-TrollHD

NCURBAN

Well-Known Member
Administrative
May 25, 2016
3,347
3,629
113
Ariana Grande - Interview (Good Morning America 2015) [HDTV-720p]-TrollHD




Tv Show: ABC
At: Good Morning America
Date: 15 Sep, 2016
Code:
Format                                   : MPEG-TS
File size                                : 512 MiB
Duration                                 : 6 min 54 s
Overall bit rate mode                    : Variable
Overall bit rate                         : 10.4 Mb/s
Movie name                               : GOOD MORNING AMERICA
Law rating                               : None

Video
ID                                       : 7571 (0x1D93)
Menu ID                                  : 1029 (0x405)
Format                                   : MPEG Video
Format version                           : Version 2
Format profile                           : Main@High
Format settings, BVOP                    : Yes
Format settings, Matrix                  : Custom
Format settings, GOP                     : Variable
Codec ID                                 : 2
Duration                                 : 6 min 53 s
Bit rate mode                            : Variable
Bit rate                                 : 9 371 kb/s
Maximum bit rate                         : 24.0 Mb/s
Width                                    : 1 280 pixels
Height                                   : 720 pixels
Display aspect ratio                     : 16:9
Frame rate                               : 59.940 (60000/1001) FPS
Color space                              : YUV
Chroma subsampling                       : 4:2:0
Bit depth                                : 8 bits
Scan type                                : Progressive
Compression mode                         : Lossy
Bits/(Pixel*Frame)                       : 0.170
Time code of first frame                 : 00:00:00;00
Time code source                         : Group of pictures header
GOP, Open/Closed                         : Open
Stream size                              : 462 MiB (90%)

Audio #1
ID                                       : 7572 (0x1D94)
Menu ID                                  : 1029 (0x405)
Format                                   : AC-3
Format/Info                              : Audio Coding 3
Mode extension                           : CM (complete main)
Format settings, Endianness              : Big
Codec ID                                 : 129
Duration                                 : 6 min 53 s
Bit rate mode                            : Constant
Bit rate                                 : 384 kb/s
Channel(s)                               : 6 channels
Channel positions                        : Front: L C R, Side: L R, LFE
Sampling rate                            : 48.0 kHz
Frame rate                               : 31.250 FPS (1536 spf)
Bit depth                                : 16 bits
Compression mode                         : Lossy
Stream size                              : 18.9 MiB (4%)
Language                                 : English
Download
You must reply before you can see the hidden data contained here.
 
Last edited:

ugo

Member
Registered
Jan 12, 2019
550
6
18
31
Ariana Grande - Interview (Good Morning America 2015) [HDTV-720p]-TrollHD





Code:
Format                                   : MPEG-TS
File size                                : 512 MiB
Duration                                 : 6 min 54 s
Overall bit rate mode                    : Variable
Overall bit rate                         : 10.4 Mb/s
Movie name                               : GOOD MORNING AMERICA
Law rating                               : None

Video
ID                                       : 7571 (0x1D93)
Menu ID                                  : 1029 (0x405)
Format                                   : MPEG Video
Format version                           : Version 2
Format profile                           : Main@High
Format settings, BVOP                    : Yes
Format settings, Matrix                  : Custom
Format settings, GOP                     : Variable
Codec ID                                 : 2
Duration                                 : 6 min 53 s
Bit rate mode                            : Variable
Bit rate                                 : 9 371 kb/s
Maximum bit rate                         : 24.0 Mb/s
Width                                    : 1 280 pixels
Height                                   : 720 pixels
Display aspect ratio                     : 16:9
Frame rate                               : 59.940 (60000/1001) FPS
Color space                              : YUV
Chroma subsampling                       : 4:2:0
Bit depth                                : 8 bits
Scan type                                : Progressive
Compression mode                         : Lossy
Bits/(Pixel*Frame)                       : 0.170
Time code of first frame                 : 00:00:00;00
Time code source                         : Group of pictures header
GOP, Open/Closed                         : Open
Stream size                              : 462 MiB (90%)

Audio #1
ID                                       : 7572 (0x1D94)
Menu ID                                  : 1029 (0x405)
Format                                   : AC-3
Format/Info                              : Audio Coding 3
Mode extension                           : CM (complete main)
Format settings, Endianness              : Big
Codec ID                                 : 129
Duration                                 : 6 min 53 s
Bit rate mode                            : Constant
Bit rate                                 : 384 kb/s
Channel(s)                               : 6 channels
Channel positions                        : Front: L C R, Side: L R, LFE
Sampling rate                            : 48.0 kHz
Frame rate                               : 31.250 FPS (1536 spf)
Bit depth                                : 16 bits
Compression mode                         : Lossy
Stream size                              : 18.9 MiB (4%)
Language                                 : English
Download
***Hidden content cannot be quoted.***
Thamks