HDTV Ariana Grande - Jason's Song (Gave It Away) [Jimmy Fallon 2016] HDTV-1080i

NCURBAN

Well-Known Member
Administrative
May 25, 2016
3,358
4,084
113
Ariana Grande - Jason's Song (Gave It Away) [Jimmy Fallon 2016] HDTV-1080i



Code:
Format                                   : MPEG-TS
File size                                : 961 MiB
Duration                                 : 5mn 23s
Overall bit rate mode                    : Variable
Overall bit rate                         : 24.9 Mbps
Movie name                               : Tonight Show Jimmy Fallon
Law rating                               : TV-14 (L)

Video
ID                                       : 513 (0x201)
Menu ID                                  : 1 (0x1)
Format                                   : AVC
Format/Info                              : Advanced Video Codec
Format profile                           : High@L4.1
Format settings, CABAC                   : Yes
Format settings, ReFrames                : 4 frames
Codec ID                                 : 27
Duration                                 : 5mn 23s
Bit rate                                 : 23.3 Mbps
Width                                    : 1 920 pixels
Height                                   : 1 080 pixels
Display aspect ratio                     : 16:9
Frame rate                               : 29.970 fps
Color space                              : YUV
Chroma subsampling                       : 4:2:0
Bit depth                                : 8 bits
Scan type                                : Interlaced
Scan order                               : Top Field First
Bits/(Pixel*Frame)                       : 0.375
Stream size                              : 898 MiB (93%)
Color range                              : Full
Color primaries                          : BT.709
Transfer characteristics                 : BT.709
Matrix coefficients                      : BT.709

Audio
ID                                       : 514 (0x202)
Menu ID                                  : 1 (0x1)
Format                                   : AC-3
Format/Info                              : Audio Coding 3
Mode extension                           : CM (complete main)
Format settings, Endianness              : Big
Codec ID                                 : 129
Duration                                 : 5mn 23s
Bit rate mode                            : Constant
Bit rate                                 : 384 Kbps
Channel(s)                               : 6 channels
Channel positions                        : Front: L C R, Side: L R, LFE
Sampling rate                            : 48.0 KHz
Compression mode                         : Lossy
Stream size                              : 14.8 MiB (2%)
Language                                 : English

Download
You must reply before you can see the hidden data contained here.
 
  • Like
Reactions: imaginenarwhals

ghrostin

New Member
Registered
Dec 29, 2018
10
0
1
19
Ariana Grande - Jason's Song (Gave It Away) [Jimmy Fallon 2016] HDTV-1080i



Code:
Format                                   : MPEG-TS
File size                                : 961 MiB
Duration                                 : 5mn 23s
Overall bit rate mode                    : Variable
Overall bit rate                         : 24.9 Mbps
Movie name                               : Tonight Show Jimmy Fallon
Law rating                               : TV-14 (L)

Video
ID                                       : 513 (0x201)
Menu ID                                  : 1 (0x1)
Format                                   : AVC
Format/Info                              : Advanced Video Codec
Format profile                           : High@L4.1
Format settings, CABAC                   : Yes
Format settings, ReFrames                : 4 frames
Codec ID                                 : 27
Duration                                 : 5mn 23s
Bit rate                                 : 23.3 Mbps
Width                                    : 1 920 pixels
Height                                   : 1 080 pixels
Display aspect ratio                     : 16:9
Frame rate                               : 29.970 fps
Color space                              : YUV
Chroma subsampling                       : 4:2:0
Bit depth                                : 8 bits
Scan type                                : Interlaced
Scan order                               : Top Field First
Bits/(Pixel*Frame)                       : 0.375
Stream size                              : 898 MiB (93%)
Color range                              : Full
Color primaries                          : BT.709
Transfer characteristics                 : BT.709
Matrix coefficients                      : BT.709

Audio
ID                                       : 514 (0x202)
Menu ID                                  : 1 (0x1)
Format                                   : AC-3
Format/Info                              : Audio Coding 3
Mode extension                           : CM (complete main)
Format settings, Endianness              : Big
Codec ID                                 : 129
Duration                                 : 5mn 23s
Bit rate mode                            : Constant
Bit rate                                 : 384 Kbps
Channel(s)                               : 6 channels
Channel positions                        : Front: L C R, Side: L R, LFE
Sampling rate                            : 48.0 KHz
Compression mode                         : Lossy
Stream size                              : 14.8 MiB (2%)
Language                                 : English

Download
***Hidden content cannot be quoted.***
thank u, next
 

vincentramos

New Member
Registered
Mar 9, 2019
7
0
1
27
Ariana Grande - Jason's Song (Gave It Away) [Jimmy Fallon 2016] HDTV-1080i



Code:
Format                                   : MPEG-TS
File size                                : 961 MiB
Duration                                 : 5mn 23s
Overall bit rate mode                    : Variable
Overall bit rate                         : 24.9 Mbps
Movie name                               : Tonight Show Jimmy Fallon
Law rating                               : TV-14 (L)

Video
ID                                       : 513 (0x201)
Menu ID                                  : 1 (0x1)
Format                                   : AVC
Format/Info                              : Advanced Video Codec
Format profile                           : High@L4.1
Format settings, CABAC                   : Yes
Format settings, ReFrames                : 4 frames
Codec ID                                 : 27
Duration                                 : 5mn 23s
Bit rate                                 : 23.3 Mbps
Width                                    : 1 920 pixels
Height                                   : 1 080 pixels
Display aspect ratio                     : 16:9
Frame rate                               : 29.970 fps
Color space                              : YUV
Chroma subsampling                       : 4:2:0
Bit depth                                : 8 bits
Scan type                                : Interlaced
Scan order                               : Top Field First
Bits/(Pixel*Frame)                       : 0.375
Stream size                              : 898 MiB (93%)
Color range                              : Full
Color primaries                          : BT.709
Transfer characteristics                 : BT.709
Matrix coefficients                      : BT.709

Audio
ID                                       : 514 (0x202)
Menu ID                                  : 1 (0x1)
Format                                   : AC-3
Format/Info                              : Audio Coding 3
Mode extension                           : CM (complete main)
Format settings, Endianness              : Big
Codec ID                                 : 129
Duration                                 : 5mn 23s
Bit rate mode                            : Constant
Bit rate                                 : 384 Kbps
Channel(s)                               : 6 channels
Channel positions                        : Front: L C R, Side: L R, LFE
Sampling rate                            : 48.0 KHz
Compression mode                         : Lossy
Stream size                              : 14.8 MiB (2%)
Language                                 : English

Download
***Hidden content cannot be quoted.***
thank u
 

Tallinn

New Member
Registered
May 14, 2019
1
0
1
42
Ariana Grande - Jason's Song (Gave It Away) [Jimmy Fallon 2016] HDTV-1080i



Code:
Format                                   : MPEG-TS
File size                                : 961 MiB
Duration                                 : 5mn 23s
Overall bit rate mode                    : Variable
Overall bit rate                         : 24.9 Mbps
Movie name                               : Tonight Show Jimmy Fallon
Law rating                               : TV-14 (L)

Video
ID                                       : 513 (0x201)
Menu ID                                  : 1 (0x1)
Format                                   : AVC
Format/Info                              : Advanced Video Codec
Format profile                           : High@L4.1
Format settings, CABAC                   : Yes
Format settings, ReFrames                : 4 frames
Codec ID                                 : 27
Duration                                 : 5mn 23s
Bit rate                                 : 23.3 Mbps
Width                                    : 1 920 pixels
Height                                   : 1 080 pixels
Display aspect ratio                     : 16:9
Frame rate                               : 29.970 fps
Color space                              : YUV
Chroma subsampling                       : 4:2:0
Bit depth                                : 8 bits
Scan type                                : Interlaced
Scan order                               : Top Field First
Bits/(Pixel*Frame)                       : 0.375
Stream size                              : 898 MiB (93%)
Color range                              : Full
Color primaries                          : BT.709
Transfer characteristics                 : BT.709
Matrix coefficients                      : BT.709

Audio
ID                                       : 514 (0x202)
Menu ID                                  : 1 (0x1)
Format                                   : AC-3
Format/Info                              : Audio Coding 3
Mode extension                           : CM (complete main)
Format settings, Endianness              : Big
Codec ID                                 : 129
Duration                                 : 5mn 23s
Bit rate mode                            : Constant
Bit rate                                 : 384 Kbps
Channel(s)                               : 6 channels
Channel positions                        : Front: L C R, Side: L R, LFE
Sampling rate                            : 48.0 KHz
Compression mode                         : Lossy
Stream size                              : 14.8 MiB (2%)
Language                                 : English

Download
***Hidden content cannot be quoted.***
thank you
 

ariluv

New Member
Registered
Jul 9, 2019
1
0
1
20
Ariana Grande - Jason's Song (Gave It Away) [Jimmy Fallon 2016] HDTV-1080i



Code:
Format                                   : MPEG-TS
File size                                : 961 MiB
Duration                                 : 5mn 23s
Overall bit rate mode                    : Variable
Overall bit rate                         : 24.9 Mbps
Movie name                               : Tonight Show Jimmy Fallon
Law rating                               : TV-14 (L)

Video
ID                                       : 513 (0x201)
Menu ID                                  : 1 (0x1)
Format                                   : AVC
Format/Info                              : Advanced Video Codec
Format profile                           : High@L4.1
Format settings, CABAC                   : Yes
Format settings, ReFrames                : 4 frames
Codec ID                                 : 27
Duration                                 : 5mn 23s
Bit rate                                 : 23.3 Mbps
Width                                    : 1 920 pixels
Height                                   : 1 080 pixels
Display aspect ratio                     : 16:9
Frame rate                               : 29.970 fps
Color space                              : YUV
Chroma subsampling                       : 4:2:0
Bit depth                                : 8 bits
Scan type                                : Interlaced
Scan order                               : Top Field First
Bits/(Pixel*Frame)                       : 0.375
Stream size                              : 898 MiB (93%)
Color range                              : Full
Color primaries                          : BT.709
Transfer characteristics                 : BT.709
Matrix coefficients                      : BT.709

Audio
ID                                       : 514 (0x202)
Menu ID                                  : 1 (0x1)
Format                                   : AC-3
Format/Info                              : Audio Coding 3
Mode extension                           : CM (complete main)
Format settings, Endianness              : Big
Codec ID                                 : 129
Duration                                 : 5mn 23s
Bit rate mode                            : Constant
Bit rate                                 : 384 Kbps
Channel(s)                               : 6 channels
Channel positions                        : Front: L C R, Side: L R, LFE
Sampling rate                            : 48.0 KHz
Compression mode                         : Lossy
Stream size                              : 14.8 MiB (2%)
Language                                 : English

Download
***Hidden content cannot be quoted.***
would love this one!
 

paola

New Member
Registered
Aug 17, 2019
14
0
1
32
Ariana Grande - Jason's Song (Gave It Away) [Jimmy Fallon 2016] HDTV-1080i



Code:
Format                                   : MPEG-TS
File size                                : 961 MiB
Duration                                 : 5mn 23s
Overall bit rate mode                    : Variable
Overall bit rate                         : 24.9 Mbps
Movie name                               : Tonight Show Jimmy Fallon
Law rating                               : TV-14 (L)

Video
ID                                       : 513 (0x201)
Menu ID                                  : 1 (0x1)
Format                                   : AVC
Format/Info                              : Advanced Video Codec
Format profile                           : High@L4.1
Format settings, CABAC                   : Yes
Format settings, ReFrames                : 4 frames
Codec ID                                 : 27
Duration                                 : 5mn 23s
Bit rate                                 : 23.3 Mbps
Width                                    : 1 920 pixels
Height                                   : 1 080 pixels
Display aspect ratio                     : 16:9
Frame rate                               : 29.970 fps
Color space                              : YUV
Chroma subsampling                       : 4:2:0
Bit depth                                : 8 bits
Scan type                                : Interlaced
Scan order                               : Top Field First
Bits/(Pixel*Frame)                       : 0.375
Stream size                              : 898 MiB (93%)
Color range                              : Full
Color primaries                          : BT.709
Transfer characteristics                 : BT.709
Matrix coefficients                      : BT.709

Audio
ID                                       : 514 (0x202)
Menu ID                                  : 1 (0x1)
Format                                   : AC-3
Format/Info                              : Audio Coding 3
Mode extension                           : CM (complete main)
Format settings, Endianness              : Big
Codec ID                                 : 129
Duration                                 : 5mn 23s
Bit rate mode                            : Constant
Bit rate                                 : 384 Kbps
Channel(s)                               : 6 channels
Channel positions                        : Front: L C R, Side: L R, LFE
Sampling rate                            : 48.0 KHz
Compression mode                         : Lossy
Stream size                              : 14.8 MiB (2%)
Language                                 : English

Download
***Hidden content cannot be quoted.***
n
 

UserName

New Member
Registered
Oct 25, 2019
2
0
1
23
Ariana Grande - Jason's Song (Gave It Away) [Jimmy Fallon 2016] HDTV-1080i



Code:
Format                                   : MPEG-TS
File size                                : 961 MiB
Duration                                 : 5mn 23s
Overall bit rate mode                    : Variable
Overall bit rate                         : 24.9 Mbps
Movie name                               : Tonight Show Jimmy Fallon
Law rating                               : TV-14 (L)

Video
ID                                       : 513 (0x201)
Menu ID                                  : 1 (0x1)
Format                                   : AVC
Format/Info                              : Advanced Video Codec
Format profile                           : High@L4.1
Format settings, CABAC                   : Yes
Format settings, ReFrames                : 4 frames
Codec ID                                 : 27
Duration                                 : 5mn 23s
Bit rate                                 : 23.3 Mbps
Width                                    : 1 920 pixels
Height                                   : 1 080 pixels
Display aspect ratio                     : 16:9
Frame rate                               : 29.970 fps
Color space                              : YUV
Chroma subsampling                       : 4:2:0
Bit depth                                : 8 bits
Scan type                                : Interlaced
Scan order                               : Top Field First
Bits/(Pixel*Frame)                       : 0.375
Stream size                              : 898 MiB (93%)
Color range                              : Full
Color primaries                          : BT.709
Transfer characteristics                 : BT.709
Matrix coefficients                      : BT.709

Audio
ID                                       : 514 (0x202)
Menu ID                                  : 1 (0x1)
Format                                   : AC-3
Format/Info                              : Audio Coding 3
Mode extension                           : CM (complete main)
Format settings, Endianness              : Big
Codec ID                                 : 129
Duration                                 : 5mn 23s
Bit rate mode                            : Constant
Bit rate                                 : 384 Kbps
Channel(s)                               : 6 channels
Channel positions                        : Front: L C R, Side: L R, LFE
Sampling rate                            : 48.0 KHz
Compression mode                         : Lossy
Stream size                              : 14.8 MiB (2%)
Language                                 : English

Download
***Hidden content cannot be quoted.***
awesome thank you
 

Casino Lover76

New Member
Registered
Nov 2, 2019
22
0
1
33
Ariana Grande - Jason's Song (Gave It Away) [Jimmy Fallon 2016] HDTV-1080i



Code:
Format                                   : MPEG-TS
File size                                : 961 MiB
Duration                                 : 5mn 23s
Overall bit rate mode                    : Variable
Overall bit rate                         : 24.9 Mbps
Movie name                               : Tonight Show Jimmy Fallon
Law rating                               : TV-14 (L)

Video
ID                                       : 513 (0x201)
Menu ID                                  : 1 (0x1)
Format                                   : AVC
Format/Info                              : Advanced Video Codec
Format profile                           : High@L4.1
Format settings, CABAC                   : Yes
Format settings, ReFrames                : 4 frames
Codec ID                                 : 27
Duration                                 : 5mn 23s
Bit rate                                 : 23.3 Mbps
Width                                    : 1 920 pixels
Height                                   : 1 080 pixels
Display aspect ratio                     : 16:9
Frame rate                               : 29.970 fps
Color space                              : YUV
Chroma subsampling                       : 4:2:0
Bit depth                                : 8 bits
Scan type                                : Interlaced
Scan order                               : Top Field First
Bits/(Pixel*Frame)                       : 0.375
Stream size                              : 898 MiB (93%)
Color range                              : Full
Color primaries                          : BT.709
Transfer characteristics                 : BT.709
Matrix coefficients                      : BT.709

Audio
ID                                       : 514 (0x202)
Menu ID                                  : 1 (0x1)
Format                                   : AC-3
Format/Info                              : Audio Coding 3
Mode extension                           : CM (complete main)
Format settings, Endianness              : Big
Codec ID                                 : 129
Duration                                 : 5mn 23s
Bit rate mode                            : Constant
Bit rate                                 : 384 Kbps
Channel(s)                               : 6 channels
Channel positions                        : Front: L C R, Side: L R, LFE
Sampling rate                            : 48.0 KHz
Compression mode                         : Lossy
Stream size                              : 14.8 MiB (2%)
Language                                 : English

Download
***Hidden content cannot be quoted.***
 

Andre Rodrigues

New Member
Registered
Mar 9, 2020
5
0
1
21
Ariana Grande - Jason's Song (Gave It Away) [Jimmy Fallon 2016] HDTV-1080i



Code:
Format                                   : MPEG-TS
File size                                : 961 MiB
Duration                                 : 5mn 23s
Overall bit rate mode                    : Variable
Overall bit rate                         : 24.9 Mbps
Movie name                               : Tonight Show Jimmy Fallon
Law rating                               : TV-14 (L)

Video
ID                                       : 513 (0x201)
Menu ID                                  : 1 (0x1)
Format                                   : AVC
Format/Info                              : Advanced Video Codec
Format profile                           : High@L4.1
Format settings, CABAC                   : Yes
Format settings, ReFrames                : 4 frames
Codec ID                                 : 27
Duration                                 : 5mn 23s
Bit rate                                 : 23.3 Mbps
Width                                    : 1 920 pixels
Height                                   : 1 080 pixels
Display aspect ratio                     : 16:9
Frame rate                               : 29.970 fps
Color space                              : YUV
Chroma subsampling                       : 4:2:0
Bit depth                                : 8 bits
Scan type                                : Interlaced
Scan order                               : Top Field First
Bits/(Pixel*Frame)                       : 0.375
Stream size                              : 898 MiB (93%)
Color range                              : Full
Color primaries                          : BT.709
Transfer characteristics                 : BT.709
Matrix coefficients                      : BT.709

Audio
ID                                       : 514 (0x202)
Menu ID                                  : 1 (0x1)
Format                                   : AC-3
Format/Info                              : Audio Coding 3
Mode extension                           : CM (complete main)
Format settings, Endianness              : Big
Codec ID                                 : 129
Duration                                 : 5mn 23s
Bit rate mode                            : Constant
Bit rate                                 : 384 Kbps
Channel(s)                               : 6 channels
Channel positions                        : Front: L C R, Side: L R, LFE
Sampling rate                            : 48.0 KHz
Compression mode                         : Lossy
Stream size                              : 14.8 MiB (2%)
Language                                 : English

Download
***Hidden content cannot be quoted.***
 

ageloo

New Member
Registered
Mar 28, 2020
1
0
1
25
Ariana Grande - Jason's Song (Gave It Away) [Jimmy Fallon 2016] HDTV-1080i



Code:
Format                                   : MPEG-TS
File size                                : 961 MiB
Duration                                 : 5mn 23s
Overall bit rate mode                    : Variable
Overall bit rate                         : 24.9 Mbps
Movie name                               : Tonight Show Jimmy Fallon
Law rating                               : TV-14 (L)

Video
ID                                       : 513 (0x201)
Menu ID                                  : 1 (0x1)
Format                                   : AVC
Format/Info                              : Advanced Video Codec
Format profile                           : High@L4.1
Format settings, CABAC                   : Yes
Format settings, ReFrames                : 4 frames
Codec ID                                 : 27
Duration                                 : 5mn 23s
Bit rate                                 : 23.3 Mbps
Width                                    : 1 920 pixels
Height                                   : 1 080 pixels
Display aspect ratio                     : 16:9
Frame rate                               : 29.970 fps
Color space                              : YUV
Chroma subsampling                       : 4:2:0
Bit depth                                : 8 bits
Scan type                                : Interlaced
Scan order                               : Top Field First
Bits/(Pixel*Frame)                       : 0.375
Stream size                              : 898 MiB (93%)
Color range                              : Full
Color primaries                          : BT.709
Transfer characteristics                 : BT.709
Matrix coefficients                      : BT.709

Audio
ID                                       : 514 (0x202)
Menu ID                                  : 1 (0x1)
Format                                   : AC-3
Format/Info                              : Audio Coding 3
Mode extension                           : CM (complete main)
Format settings, Endianness              : Big
Codec ID                                 : 129
Duration                                 : 5mn 23s
Bit rate mode                            : Constant
Bit rate                                 : 384 Kbps
Channel(s)                               : 6 channels
Channel positions                        : Front: L C R, Side: L R, LFE
Sampling rate                            : 48.0 KHz
Compression mode                         : Lossy
Stream size                              : 14.8 MiB (2%)
Language                                 : English

Download
***Hidden content cannot be quoted.***