HDTV Ariana Grande - Side to Side (Tonight Show with Jimmy Fallon) [HDTV-720p]-HDMania

NCURBAN

Well-Known Member
Administrative
May 25, 2016
3,347
3,635
113
Ariana Grande - Side to Side (Tonight Show with Jimmy Fallon) [HDTV-720p]-HDMania



Code:
Format                                   : Matroska
Format version                           : Version 2
File size                                : 253 MiB
Duration                                 : 4mn 43s
Overall bit rate                         : 7 484 Kbps
Writing application                      : libmatroska 1.4.1
Writing library                          : SolveigMM Matroska Muxer Version 1.0.1502.18

Video
ID                                       : 1
Format                                   : AVC
Format/Info                              : Advanced Video Codec
Format profile                           : High@L4.1
Format settings, CABAC                   : Yes
Format settings, ReFrames                : 5 frames
Codec ID                                 : V_MPEG4/ISO/AVC
Duration                                 : 4mn 43s
Bit rate                                 : 6 951 Kbps
Width                                    : 1 280 pixels
Height                                   : 720 pixels
Display aspect ratio                     : 16:9
Frame rate mode                          : Constant
Frame rate                               : 60.000 fps
Original frame rate                      : 59.940 fps
Color space                              : YUV
Chroma subsampling                       : 4:2:0
Bit depth                                : 8 bits
Scan type                                : Progressive
Bits/(Pixel*Frame)                       : 0.126
Stream size                              : 235 MiB (93%)
Default                                  : No
Forced                                   : No
Color range                              : Limited
Matrix coefficients                      : BT.709

Audio
ID                                       : 2
Format                                   : AC-3
Format/Info                              : Audio Coding 3
Mode extension                           : CM (complete main)
Format settings, Endianness              : Big
Codec ID                                 : A_AC3
Duration                                 : 4mn 43s
Bit rate mode                            : Constant
Bit rate                                 : 384 Kbps
Channel(s)                               : 6 channels
Channel positions                        : Front: L C R, Side: L R, LFE
Sampling rate                            : 48.0 KHz
Bit depth                                :  bit0
Compression mode                         : Lossy
Delay relative to video                  : 24ms
Stream size                              : 13.0 MiB (5%)
Language                                 : English
Default                                  : No
Forced                                   : No

Download
You must reply before you can see the hidden data contained here.
 

Sweetener

New Member
Registered
Jun 21, 2018
13
0
1
20
thanks
Ariana Grande - Side to Side (Tonight Show with Jimmy Fallon) [HDTV-720p]-HDMania



Code:
Format                                   : Matroska
Format version                           : Version 2
File size                                : 253 MiB
Duration                                 : 4mn 43s
Overall bit rate                         : 7 484 Kbps
Writing application                      : libmatroska 1.4.1
Writing library                          : SolveigMM Matroska Muxer Version 1.0.1502.18

Video
ID                                       : 1
Format                                   : AVC
Format/Info                              : Advanced Video Codec
Format profile                           : High@L4.1
Format settings, CABAC                   : Yes
Format settings, ReFrames                : 5 frames
Codec ID                                 : V_MPEG4/ISO/AVC
Duration                                 : 4mn 43s
Bit rate                                 : 6 951 Kbps
Width                                    : 1 280 pixels
Height                                   : 720 pixels
Display aspect ratio                     : 16:9
Frame rate mode                          : Constant
Frame rate                               : 60.000 fps
Original frame rate                      : 59.940 fps
Color space                              : YUV
Chroma subsampling                       : 4:2:0
Bit depth                                : 8 bits
Scan type                                : Progressive
Bits/(Pixel*Frame)                       : 0.126
Stream size                              : 235 MiB (93%)
Default                                  : No
Forced                                   : No
Color range                              : Limited
Matrix coefficients                      : BT.709

Audio
ID                                       : 2
Format                                   : AC-3
Format/Info                              : Audio Coding 3
Mode extension                           : CM (complete main)
Format settings, Endianness              : Big
Codec ID                                 : A_AC3
Duration                                 : 4mn 43s
Bit rate mode                            : Constant
Bit rate                                 : 384 Kbps
Channel(s)                               : 6 channels
Channel positions                        : Front: L C R, Side: L R, LFE
Sampling rate                            : 48.0 KHz
Bit depth                                :  bit0
Compression mode                         : Lossy
Delay relative to video                  : 24ms
Stream size                              : 13.0 MiB (5%)
Language                                 : English
Default                                  : No
Forced                                   : No

Download
***Hidden content cannot be quoted.***
 

Casino Lover76

New Member
Registered
Nov 2, 2019
22
0
1
33
Ariana Grande - Side to Side (Tonight Show with Jimmy Fallon) [HDTV-720p]-HDMania



Code:
Format                                   : Matroska
Format version                           : Version 2
File size                                : 253 MiB
Duration                                 : 4mn 43s
Overall bit rate                         : 7 484 Kbps
Writing application                      : libmatroska 1.4.1
Writing library                          : SolveigMM Matroska Muxer Version 1.0.1502.18

Video
ID                                       : 1
Format                                   : AVC
Format/Info                              : Advanced Video Codec
Format profile                           : High@L4.1
Format settings, CABAC                   : Yes
Format settings, ReFrames                : 5 frames
Codec ID                                 : V_MPEG4/ISO/AVC
Duration                                 : 4mn 43s
Bit rate                                 : 6 951 Kbps
Width                                    : 1 280 pixels
Height                                   : 720 pixels
Display aspect ratio                     : 16:9
Frame rate mode                          : Constant
Frame rate                               : 60.000 fps
Original frame rate                      : 59.940 fps
Color space                              : YUV
Chroma subsampling                       : 4:2:0
Bit depth                                : 8 bits
Scan type                                : Progressive
Bits/(Pixel*Frame)                       : 0.126
Stream size                              : 235 MiB (93%)
Default                                  : No
Forced                                   : No
Color range                              : Limited
Matrix coefficients                      : BT.709

Audio
ID                                       : 2
Format                                   : AC-3
Format/Info                              : Audio Coding 3
Mode extension                           : CM (complete main)
Format settings, Endianness              : Big
Codec ID                                 : A_AC3
Duration                                 : 4mn 43s
Bit rate mode                            : Constant
Bit rate                                 : 384 Kbps
Channel(s)                               : 6 channels
Channel positions                        : Front: L C R, Side: L R, LFE
Sampling rate                            : 48.0 KHz
Bit depth                                :  bit0
Compression mode                         : Lossy
Delay relative to video                  : 24ms
Stream size                              : 13.0 MiB (5%)
Language                                 : English
Default                                  : No
Forced                                   : No

Download
***Hidden content cannot be quoted.***
 

paola

New Member
Registered
Aug 17, 2019
11
0
1
32
Ariana Grande - Side to Side (Tonight Show with Jimmy Fallon) [HDTV-720p]-HDMania:):):):):)



Code:
Format                                   : Matroska
Format version                           : Version 2
File size                                : 253 MiB
Duration                                 : 4mn 43s
Overall bit rate                         : 7 484 Kbps
Writing application                      : libmatroska 1.4.1
Writing library                          : SolveigMM Matroska Muxer Version 1.0.1502.18

Video
ID                                       : 1
Format                                   : AVC
Format/Info                              : Advanced Video Codec
Format profile                           : High@L4.1
Format settings, CABAC                   : Yes
Format settings, ReFrames                : 5 frames
Codec ID                                 : V_MPEG4/ISO/AVC
Duration                                 : 4mn 43s
Bit rate                                 : 6 951 Kbps
Width                                    : 1 280 pixels
Height                                   : 720 pixels
Display aspect ratio                     : 16:9
Frame rate mode                          : Constant
Frame rate                               : 60.000 fps
Original frame rate                      : 59.940 fps
Color space                              : YUV
Chroma subsampling                       : 4:2:0
Bit depth                                : 8 bits
Scan type                                : Progressive
Bits/(Pixel*Frame)                       : 0.126
Stream size                              : 235 MiB (93%)
Default                                  : No
Forced                                   : No
Color range                              : Limited
Matrix coefficients                      : BT.709

Audio
ID                                       : 2
Format                                   : AC-3
Format/Info                              : Audio Coding 3
Mode extension                           : CM (complete main)
Format settings, Endianness              : Big
Codec ID                                 : A_AC3
Duration                                 : 4mn 43s
Bit rate mode                            : Constant
Bit rate                                 : 384 Kbps
Channel(s)                               : 6 channels
Channel positions                        : Front: L C R, Side: L R, LFE
Sampling rate                            : 48.0 KHz
Bit depth                                :  bit0
Compression mode                         : Lossy
Delay relative to video                  : 24ms
Stream size                              : 13.0 MiB (5%)
Language                                 : English
Default                                  : No
Forced                                   : No

Download
***Hidden content cannot be quoted.***
 

Andre Rodrigues

New Member
Registered
Mar 9, 2020
4
0
1
21
Ariana Grande - Side to Side (Tonight Show with Jimmy Fallon) [HDTV-720p]-HDMania



Code:
Format                                   : Matroska
Format version                           : Version 2
File size                                : 253 MiB
Duration                                 : 4mn 43s
Overall bit rate                         : 7 484 Kbps
Writing application                      : libmatroska 1.4.1
Writing library                          : SolveigMM Matroska Muxer Version 1.0.1502.18

Video
ID                                       : 1
Format                                   : AVC
Format/Info                              : Advanced Video Codec
Format profile                           : High@L4.1
Format settings, CABAC                   : Yes
Format settings, ReFrames                : 5 frames
Codec ID                                 : V_MPEG4/ISO/AVC
Duration                                 : 4mn 43s
Bit rate                                 : 6 951 Kbps
Width                                    : 1 280 pixels
Height                                   : 720 pixels
Display aspect ratio                     : 16:9
Frame rate mode                          : Constant
Frame rate                               : 60.000 fps
Original frame rate                      : 59.940 fps
Color space                              : YUV
Chroma subsampling                       : 4:2:0
Bit depth                                : 8 bits
Scan type                                : Progressive
Bits/(Pixel*Frame)                       : 0.126
Stream size                              : 235 MiB (93%)
Default                                  : No
Forced                                   : No
Color range                              : Limited
Matrix coefficients                      : BT.709

Audio
ID                                       : 2
Format                                   : AC-3
Format/Info                              : Audio Coding 3
Mode extension                           : CM (complete main)
Format settings, Endianness              : Big
Codec ID                                 : A_AC3
Duration                                 : 4mn 43s
Bit rate mode                            : Constant
Bit rate                                 : 384 Kbps
Channel(s)                               : 6 channels
Channel positions                        : Front: L C R, Side: L R, LFE
Sampling rate                            : 48.0 KHz
Bit depth                                :  bit0
Compression mode                         : Lossy
Delay relative to video                  : 24ms
Stream size                              : 13.0 MiB (5%)
Language                                 : English
Default                                  : No
Forced                                   : No

Download
***Hidden content cannot be quoted.***