WEBRIP Ariana Grande - The Summertime Ball 2016 (WebRip-1080p)

NCURBAN

Well-Known Member
Administrative
May 25, 2016
3,358
4,092
113
Ariana Grande - Into You (The Summertime Ball 2016) [WebRip-1080p]

You must reply before you can see the hidden data contained here.
********************​

Ariana Grande - Greedy (The Summertime Ball 2016) [WebRip-1080p]

You must reply before you can see the hidden data contained here.
********************​

Ariana Grande - Problem (The Summertime Ball 2016) [WebRip-1080p]

You must reply before you can see the hidden data contained here.
********************​

Ariana Grande - One Last Time (The Summertime Ball 2016) [WebRip-1080p]

You must reply before you can see the hidden data contained here.
********************​

Ariana Grande - Bang Bang (The Summertime Ball 2016) [WebRip-1080p]

You must reply before you can see the hidden data contained here.
[CODE : MPEG-4
Format profile : Base Media
Codec ID : isom
File size : 136 MiB
Duration : 4mn 23s
Overall bit rate : 4 351 Kbps
Writing application : Lavf55.19.104

Video
ID : 1
Format : AVC
Format/Info : Advanced Video Codec
Format profile : High@L4
Format settings, CABAC : Yes
Format settings, ReFrames : 2 frames
Codec ID : avc1
Codec ID/Info : Advanced Video Coding
Duration : 4mn 23s
Bit rate : 4 253 Kbps
Width : 1 920 pixels
Height : 1 080 pixels
Display aspect ratio : 16:9
Frame rate mode : Constant
Frame rate : 25.000 fps
Color space : YUV
Chroma subsampling : 4:2:0
Bit depth : 8 bits
Scan type : Progressive
Bits/(Pixel*Frame) : 0.082
Stream size : 133 MiB (98%)
Color range : Limited
Color primaries : BT.709
Transfer characteristics : BT.709
Matrix coefficients : BT.709

Audio
ID : 2
Format : AAC
Format/Info : Advanced Audio Codec
Format profile : LC
Codec ID : 40
Duration : 4mn 23s
Bit rate mode : Constant
Bit rate : 93.6 Kbps
Channel(s) : 2 channels
Channel(s)_Original : 1 channel
Channel positions : Front: C
Sampling rate : 44.1 KHz
Compression mode : Lossy
Stream size : 2.93 MiB (2%)

[/CODE]​
 

Sadsun0000

Member
Registered
Aug 1, 2019
53
0
6
32
Ariana Grande - Into You (The Summertime Ball 2016) [WebRip-1080p]

***Hidden content cannot be quoted.***

********************​

Ariana Grande - Greedy (The Summertime Ball 2016) [WebRip-1080p]

***Hidden content cannot be quoted.***

********************​

Ariana Grande - Problem (The Summertime Ball 2016) [WebRip-1080p]

***Hidden content cannot be quoted.***

********************​

Ariana Grande - One Last Time (The Summertime Ball 2016) [WebRip-1080p]

***Hidden content cannot be quoted.***

********************​

Ariana Grande - Bang Bang (The Summertime Ball 2016) [WebRip-1080p]

***Hidden content cannot be quoted.******Hidden content cannot be quoted.***

[CODE : MPEG-4
Format profile : Base Media
Codec ID : isom
File size : 136 MiB
Duration : 4mn 23s
Overall bit rate : 4 351 Kbps
Writing application : Lavf55.19.104

Video
ID : 1
Format : AVC
Format/Info : Advanced Video Codec
Format profile : High@L4
Format settings, CABAC : Yes
Format settings, ReFrames : 2 frames
Codec ID : avc1
Codec ID/Info : Advanced Video Coding
Duration : 4mn 23s
Bit rate : 4 253 Kbps
Width : 1 920 pixels
Height : 1 080 pixels
Display aspect ratio : 16:9
Frame rate mode : Constant
Frame rate : 25.000 fps
Color space : YUV
Chroma subsampling : 4:2:0
Bit depth : 8 bits
Scan type : Progressive
Bits/(Pixel*Frame) : 0.082
Stream size : 133 MiB (98%)
Color range : Limited
Color primaries : BT.709
Transfer characteristics : BT.709
Matrix coefficients : BT.709

Audio
ID : 2
Format : AAC
Format/Info : Advanced Audio Codec
Format profile : LC
Codec ID : 40
Duration : 4mn 23s
Bit rate mode : Constant
Bit rate : 93.6 Kbps
Channel(s) : 2 channels
Channel(s)_Original : 1 channel
Channel positions : Front: C
Sampling rate : 44.1 KHz
Compression mode : Lossy
Stream size : 2.93 MiB (2%)

[/CODE]​
 

paraga

New Member
Registered
Aug 4, 2019
25
0
1
23
Ariana Grande - Into You (The Summertime Ball 2016) [WebRip-1080p]

***Hidden content cannot be quoted.***

********************​

Ariana Grande - Greedy (The Summertime Ball 2016) [WebRip-1080p]

***Hidden content cannot be quoted.***

********************​

Ariana Grande - Problem (The Summertime Ball 2016) [WebRip-1080p]

***Hidden content cannot be quoted.***

********************​

Ariana Grande - One Last Time (The Summertime Ball 2016) [WebRip-1080p]

***Hidden content cannot be quoted.***

********************​

Ariana Grande - Bang Bang (The Summertime Ball 2016) [WebRip-1080p]

***Hidden content cannot be quoted.******Hidden content cannot be quoted.***

[CODE : MPEG-4
Format profile : Base Media
Codec ID : isom
File size : 136 MiB
Duration : 4mn 23s
Overall bit rate : 4 351 Kbps
Writing application : Lavf55.19.104

Video
ID : 1
Format : AVC
Format/Info : Advanced Video Codec
Format profile : High@L4
Format settings, CABAC : Yes
Format settings, ReFrames : 2 frames
Codec ID : avc1
Codec ID/Info : Advanced Video Coding
Duration : 4mn 23s
Bit rate : 4 253 Kbps
Width : 1 920 pixels
Height : 1 080 pixels
Display aspect ratio : 16:9
Frame rate mode : Constant
Frame rate : 25.000 fps
Color space : YUV
Chroma subsampling : 4:2:0
Bit depth : 8 bits
Scan type : Progressive
Bits/(Pixel*Frame) : 0.082
Stream size : 133 MiB (98%)
Color range : Limited
Color primaries : BT.709
Transfer characteristics : BT.709
Matrix coefficients : BT.709

Audio
ID : 2
Format : AAC
Format/Info : Advanced Audio Codec
Format profile : LC
Codec ID : 40
Duration : 4mn 23s
Bit rate mode : Constant
Bit rate : 93.6 Kbps
Channel(s) : 2 channels
Channel(s)_Original : 1 channel
Channel positions : Front: C
Sampling rate : 44.1 KHz
Compression mode : Lossy
Stream size : 2.93 MiB (2%)

[/CODE]​
hey
 

Casino Lover76

New Member
Registered
Nov 2, 2019
22
0
1
33
Ariana Grande - Into You (The Summertime Ball 2016) [WebRip-1080p]

***Hidden content cannot be quoted.***

********************​

Ariana Grande - Greedy (The Summertime Ball 2016) [WebRip-1080p]

***Hidden content cannot be quoted.***

********************​

Ariana Grande - Problem (The Summertime Ball 2016) [WebRip-1080p]

***Hidden content cannot be quoted.***

********************​

Ariana Grande - One Last Time (The Summertime Ball 2016) [WebRip-1080p]

***Hidden content cannot be quoted.***

********************​

Ariana Grande - Bang Bang (The Summertime Ball 2016) [WebRip-1080p]

***Hidden content cannot be quoted.******Hidden content cannot be quoted.***

[CODE : MPEG-4
Format profile : Base Media
Codec ID : isom
File size : 136 MiB
Duration : 4mn 23s
Overall bit rate : 4 351 Kbps
Writing application : Lavf55.19.104

Video
ID : 1
Format : AVC
Format/Info : Advanced Video Codec
Format profile : High@L4
Format settings, CABAC : Yes
Format settings, ReFrames : 2 frames
Codec ID : avc1
Codec ID/Info : Advanced Video Coding
Duration : 4mn 23s
Bit rate : 4 253 Kbps
Width : 1 920 pixels
Height : 1 080 pixels
Display aspect ratio : 16:9
Frame rate mode : Constant
Frame rate : 25.000 fps
Color space : YUV
Chroma subsampling : 4:2:0
Bit depth : 8 bits
Scan type : Progressive
Bits/(Pixel*Frame) : 0.082
Stream size : 133 MiB (98%)
Color range : Limited
Color primaries : BT.709
Transfer characteristics : BT.709
Matrix coefficients : BT.709

Audio
ID : 2
Format : AAC
Format/Info : Advanced Audio Codec
Format profile : LC
Codec ID : 40
Duration : 4mn 23s
Bit rate mode : Constant
Bit rate : 93.6 Kbps
Channel(s) : 2 channels
Channel(s)_Original : 1 channel
Channel positions : Front: C
Sampling rate : 44.1 KHz
Compression mode : Lossy
Stream size : 2.93 MiB (2%)

[/CODE]​
 

paola

New Member
Registered
Aug 17, 2019
14
0
1
32
i hope this works :)
Ariana Grande - Into You (The Summertime Ball 2016) [WebRip-1080p]

***Hidden content cannot be quoted.***

********************​

Ariana Grande - Greedy (The Summertime Ball 2016) [WebRip-1080p]

***Hidden content cannot be quoted.***

********************​

Ariana Grande - Problem (The Summertime Ball 2016) [WebRip-1080p]

***Hidden content cannot be quoted.***

********************​

Ariana Grande - One Last Time (The Summertime Ball 2016) [WebRip-1080p]

***Hidden content cannot be quoted.***

********************​

Ariana Grande - Bang Bang (The Summertime Ball 2016) [WebRip-1080p]

***Hidden content cannot be quoted.******Hidden content cannot be quoted.***

[CODE : MPEG-4
Format profile : Base Media
Codec ID : isom
File size : 136 MiB
Duration : 4mn 23s
Overall bit rate : 4 351 Kbps
Writing application : Lavf55.19.104

Video
ID : 1
Format : AVC
Format/Info : Advanced Video Codec
Format profile : High@L4
Format settings, CABAC : Yes
Format settings, ReFrames : 2 frames
Codec ID : avc1
Codec ID/Info : Advanced Video Coding
Duration : 4mn 23s
Bit rate : 4 253 Kbps
Width : 1 920 pixels
Height : 1 080 pixels
Display aspect ratio : 16:9
Frame rate mode : Constant
Frame rate : 25.000 fps
Color space : YUV
Chroma subsampling : 4:2:0
Bit depth : 8 bits
Scan type : Progressive
Bits/(Pixel*Frame) : 0.082
Stream size : 133 MiB (98%)
Color range : Limited
Color primaries : BT.709
Transfer characteristics : BT.709
Matrix coefficients : BT.709

Audio
ID : 2
Format : AAC
Format/Info : Advanced Audio Codec
Format profile : LC
Codec ID : 40
Duration : 4mn 23s
Bit rate mode : Constant
Bit rate : 93.6 Kbps
Channel(s) : 2 channels
Channel(s)_Original : 1 channel
Channel positions : Front: C
Sampling rate : 44.1 KHz
Compression mode : Lossy
Stream size : 2.93 MiB (2%)

[/CODE]​