1. If this is your first visit, be sure to check out the FAQ by clicking the link above. You may have to register before you can access the full forum. Follow the link above to Register. To start viewing messages, select the forum that you want to visit from the selection below.
    Dismiss Notice

WEBRIP Ariana Grande - The Summertime Ball 2016 (WebRip-1080p)

Discussion in 'Live Performances & Concerts' started by NCURBAN, Jun 25, 2016.

  1. NCURBAN

    NCURBAN Well-Known Member Administrative

    Joined:
    May 25, 2016
    Messages:
    2,857
    Likes Received:
    1,249
    Trophy Points:
    113
    Ariana Grande - Into You (The Summertime Ball 2016) [WebRip-1080p]

    [​IMG]
    Hidden Content:
    You must reply before you can see the hidden data contained here.
    ********************​

    Ariana Grande - Greedy (The Summertime Ball 2016) [WebRip-1080p]

    [​IMG]
    Hidden Content:
    You must reply before you can see the hidden data contained here.
    ********************​

    Ariana Grande - Problem (The Summertime Ball 2016) [WebRip-1080p]

    [​IMG]
    Hidden Content:
    You must reply before you can see the hidden data contained here.
    ********************​

    Ariana Grande - One Last Time (The Summertime Ball 2016) [WebRip-1080p]

    [​IMG]
    Hidden Content:
    You must reply before you can see the hidden data contained here.
    ********************​

    Ariana Grande - Bang Bang (The Summertime Ball 2016) [WebRip-1080p]

    [​IMG]
    Hidden Content:
    You must reply before you can see the hidden data contained here.
    [CODE : MPEG-4
    Format profile : Base Media
    Codec ID : isom
    File size : 136 MiB
    Duration : 4mn 23s
    Overall bit rate : 4 351 Kbps
    Writing application : Lavf55.19.104

    Video
    ID : 1
    Format : AVC
    Format/Info : Advanced Video Codec
    Format profile : High@L4
    Format settings, CABAC : Yes
    Format settings, ReFrames : 2 frames
    Codec ID : avc1
    Codec ID/Info : Advanced Video Coding
    Duration : 4mn 23s
    Bit rate : 4 253 Kbps
    Width : 1 920 pixels
    Height : 1 080 pixels
    Display aspect ratio : 16:9
    Frame rate mode : Constant
    Frame rate : 25.000 fps
    Color space : YUV
    Chroma subsampling : 4:2:0
    Bit depth : 8 bits
    Scan type : Progressive
    Bits/(Pixel*Frame) : 0.082
    Stream size : 133 MiB (98%)
    Color range : Limited
    Color primaries : BT.709
    Transfer characteristics : BT.709
    Matrix coefficients : BT.709

    Audio
    ID : 2
    Format : AAC
    Format/Info : Advanced Audio Codec
    Format profile : LC
    Codec ID : 40
    Duration : 4mn 23s
    Bit rate mode : Constant
    Bit rate : 93.6 Kbps
    Channel(s) : 2 channels
    Channel(s)_Original : 1 channel
    Channel positions : Front: C
    Sampling rate : 44.1 KHz
    Compression mode : Lossy
    Stream size : 2.93 MiB (2%)

    [/CODE]​
     
  2. Loading...


  3. ryanferreira020

    ryanferreira020 New Member Registered

    Joined:
    Oct 26, 2018
    Messages:
    3
    Likes Received:
    0
    Trophy Points:
    1
  4. Sadsun0000

    Sadsun0000 Member Registered

    Joined:
    Aug 1, 2019
    Messages:
    47
    Likes Received:
    0
    Trophy Points:
    6
     
  5. paraga

    paraga New Member Registered

    Joined:
    Aug 4, 2019
    Messages:
    23
    Likes Received:
    0
    Trophy Points:
    1
    hey