HDTV Ariana Grande - Whitney Houston Medley (ABC Greatest Hits Finale 2016) [720p-HDTV]-HDMania

NCURBAN

Well-Known Member
Administrative
May 25, 2016
3,347
3,858
113
Ariana Grande - Whitney Houston Medley (ABC Greatest Hits Finale 2016) [720p-HDTV]-HDMania



Code:
General
Format                                   : MPEG-TS
File size                                : 243 MiB
Duration                                 : 4mn 0s
Overall bit rate mode                    : Variable
Overall bit rate                         : 8 502 Kbps
Movie name                               : GREATEST HITS
Law rating                               : TV-PG (L)

Video
ID                                       : 32 (0x20)
Menu ID                                  : 1 (0x1)
Format                                   : AVC
Format/Info                              : Advanced Video Codec
Format profile                           : Main@L4
Format settings, CABAC                   : Yes
Format settings, ReFrames                : 4 frames
Format settings, GOP                     : M=4, N=32
Codec ID                                 : 27
Duration                                 : 4mn 0s
Bit rate                                 : 7 694 Kbps
Width                                    : 1 280 pixels
Height                                   : 720 pixels
Display aspect ratio                     : 16:9
Frame rate                               : 59.940 fps
Color space                              : YUV
Chroma subsampling                       : 4:2:0
Bit depth                                : 8 bits
Scan type                                : Progressive
Bits/(Pixel*Frame)                       : 0.139
Stream size                              : 220 MiB (90%)

Audio
ID                                       : 33 (0x21)
Menu ID                                  : 1 (0x1)
Format                                   : AC-3
Format/Info                              : Audio Coding 3
Mode extension                           : CM (complete main)
Format settings, Endianness              : Big
Codec ID                                 : 129
Duration                                 : 4mn 0s
Bit rate mode                            : Constant
Bit rate                                 : 384 Kbps
Channel(s)                               : 6 channels
Channel positions                        : Front: L C R, Side: L R, LFE
Sampling rate                            : 48.0 KHz
Compression mode                         : Lossy
Stream size                              : 11.0 MiB (5%)
Language                                 : lan

Download
You must reply before you can see the hidden data contained here.
 

Natt

Member
Registered
Jun 11, 2018
56
0
6
21
Ariana Grande - Whitney Houston Medley (ABC Greatest Hits Finale 2016) [720p-HDTV]-HDMania



Code:
General
Format                                   : MPEG-TS
File size                                : 243 MiB
Duration                                 : 4mn 0s
Overall bit rate mode                    : Variable
Overall bit rate                         : 8 502 Kbps
Movie name                               : GREATEST HITS
Law rating                               : TV-PG (L)

Video
ID                                       : 32 (0x20)
Menu ID                                  : 1 (0x1)
Format                                   : AVC
Format/Info                              : Advanced Video Codec
Format profile                           : Main@L4
Format settings, CABAC                   : Yes
Format settings, ReFrames                : 4 frames
Format settings, GOP                     : M=4, N=32
Codec ID                                 : 27
Duration                                 : 4mn 0s
Bit rate                                 : 7 694 Kbps
Width                                    : 1 280 pixels
Height                                   : 720 pixels
Display aspect ratio                     : 16:9
Frame rate                               : 59.940 fps
Color space                              : YUV
Chroma subsampling                       : 4:2:0
Bit depth                                : 8 bits
Scan type                                : Progressive
Bits/(Pixel*Frame)                       : 0.139
Stream size                              : 220 MiB (90%)

Audio
ID                                       : 33 (0x21)
Menu ID                                  : 1 (0x1)
Format                                   : AC-3
Format/Info                              : Audio Coding 3
Mode extension                           : CM (complete main)
Format settings, Endianness              : Big
Codec ID                                 : 129
Duration                                 : 4mn 0s
Bit rate mode                            : Constant
Bit rate                                 : 384 Kbps
Channel(s)                               : 6 channels
Channel positions                        : Front: L C R, Side: L R, LFE
Sampling rate                            : 48.0 KHz
Compression mode                         : Lossy
Stream size                              : 11.0 MiB (5%)
Language                                 : lan

Download
***Hidden content cannot be quoted.***
 

Sadsun0000

Member
Registered
Aug 1, 2019
53
0
6
32
Ariana Grande - Whitney Houston Medley (ABC Greatest Hits Finale 2016) [720p-HDTV]-HDMania



Code:
General
Format                                   : MPEG-TS
File size                                : 243 MiB
Duration                                 : 4mn 0s
Overall bit rate mode                    : Variable
Overall bit rate                         : 8 502 Kbps
Movie name                               : GREATEST HITS
Law rating                               : TV-PG (L)

Video
ID                                       : 32 (0x20)
Menu ID                                  : 1 (0x1)
Format                                   : AVC
Format/Info                              : Advanced Video Codec
Format profile                           : Main@L4
Format settings, CABAC                   : Yes
Format settings, ReFrames                : 4 frames
Format settings, GOP                     : M=4, N=32
Codec ID                                 : 27
Duration                                 : 4mn 0s
Bit rate                                 : 7 694 Kbps
Width                                    : 1 280 pixels
Height                                   : 720 pixels
Display aspect ratio                     : 16:9
Frame rate                               : 59.940 fps
Color space                              : YUV
Chroma subsampling                       : 4:2:0
Bit depth                                : 8 bits
Scan type                                : Progressive
Bits/(Pixel*Frame)                       : 0.139
Stream size                              : 220 MiB (90%)

Audio
ID                                       : 33 (0x21)
Menu ID                                  : 1 (0x1)
Format                                   : AC-3
Format/Info                              : Audio Coding 3
Mode extension                           : CM (complete main)
Format settings, Endianness              : Big
Codec ID                                 : 129
Duration                                 : 4mn 0s
Bit rate mode                            : Constant
Bit rate                                 : 384 Kbps
Channel(s)                               : 6 channels
Channel positions                        : Front: L C R, Side: L R, LFE
Sampling rate                            : 48.0 KHz
Compression mode                         : Lossy
Stream size                              : 11.0 MiB (5%)
Language                                 : lan

Download
***Hidden content cannot be quoted.***
 

maariogz2

New Member
Registered
Mar 23, 2020
3
0
1
17
Ariana Grande - Whitney Houston Medley (ABC Greatest Hits Finale 2016) [720p-HDTV]-HDMania



Code:
General
Format                                   : MPEG-TS
File size                                : 243 MiB
Duration                                 : 4mn 0s
Overall bit rate mode                    : Variable
Overall bit rate                         : 8 502 Kbps
Movie name                               : GREATEST HITS
Law rating                               : TV-PG (L)

Video
ID                                       : 32 (0x20)
Menu ID                                  : 1 (0x1)
Format                                   : AVC
Format/Info                              : Advanced Video Codec
Format profile                           : Main@L4
Format settings, CABAC                   : Yes
Format settings, ReFrames                : 4 frames
Format settings, GOP                     : M=4, N=32
Codec ID                                 : 27
Duration                                 : 4mn 0s
Bit rate                                 : 7 694 Kbps
Width                                    : 1 280 pixels
Height                                   : 720 pixels
Display aspect ratio                     : 16:9
Frame rate                               : 59.940 fps
Color space                              : YUV
Chroma subsampling                       : 4:2:0
Bit depth                                : 8 bits
Scan type                                : Progressive
Bits/(Pixel*Frame)                       : 0.139
Stream size                              : 220 MiB (90%)

Audio
ID                                       : 33 (0x21)
Menu ID                                  : 1 (0x1)
Format                                   : AC-3
Format/Info                              : Audio Coding 3
Mode extension                           : CM (complete main)
Format settings, Endianness              : Big
Codec ID                                 : 129
Duration                                 : 4mn 0s
Bit rate mode                            : Constant
Bit rate                                 : 384 Kbps
Channel(s)                               : 6 channels
Channel positions                        : Front: L C R, Side: L R, LFE
Sampling rate                            : 48.0 KHz
Compression mode                         : Lossy
Stream size                              : 11.0 MiB (5%)
Language                                 : lan

Download
***Hidden content cannot be quoted.***
thanks