HDTV Ariana Grande - Z100 iHeart Radio Jingle Ball 2016 (HDTV-1080i)-ALANiS

NCURBAN

Well-Known Member
Administrative
May 25, 2016
3,347
3,614
113
Ariana Grande - Z100 iHeart Radio Jingle Ball 2016 (HDTV-1080i)-ALANiS

Gener: Pop
Tour: Z100 iHeart Radio Jingle Ball
At: Madison Square Garden, New York, NY, USA
Date: Dec 09, 2016
Setlist:
  1. Side to Side
  2. Into You
  3. Winter Things
  4. December
  5. True Love
  6. Wit It This Christmas
  7. Be Alright
  8. Dangerous Woman
Code:
Format                                   : MPEG-TS
File size                                : 583 MiB
Duration                                 : 21 min 30 s
Overall bit rate mode                    : Variable
Overall bit rate                         : 3 791 kb/s

Video
ID                                       : 481 (0x1E1)
Menu ID                                  : 1 (0x1)
Format                                   : AVC
Format/Info                              : Advanced Video Codec
Format profile                           : High@L4
Format settings, CABAC                   : Yes
Format settings, ReFrames                : 3 frames
Codec ID                                 : 27
Duration                                 : 21 min 30 s
Bit rate mode                            : Constant
Bit rate                                 : 3 400 kb/s
Width                                    : 1 920 pixels
Height                                   : 1 080 pixels
Display aspect ratio                     : 16:9
Frame rate                               : 29.970 (30000/1001) FPS
Color space                              : YUV
Chroma subsampling                       : 4:2:0
Bit depth                                : 8 bits
Scan type                                : Interlaced
Scan type, store method                  : Separated fields
Scan order                               : Top Field First
Bits/(Pixel*Frame)                       : 0.055
Stream size                              : 525 MiB (90%)
Color range                              : Limited
Color primaries                          : BT.709
Transfer characteristics                 : BT.709
Matrix coefficients                      : BT.709

Audio
ID                                       : 482 (0x1E2)
Menu ID                                  : 1 (0x1)
Format                                   : MPEG Audio
Format version                           : Version 1
Format profile                           : Layer 2
Codec ID                                 : 3
Duration                                 : 21 min 30 s
Bit rate mode                            : Constant
Bit rate                                 : 192 kb/s
Channel(s)                               : 2 channels
Sampling rate                            : 48.0 kHz
Compression mode                         : Lossy
Stream size                              : 29.5 MiB (5%)
Language                                 : English
Download
You must reply before you can see the hidden data contained here.
 
Last edited:

RUNE

Member
Registered
Aug 17, 2016
50
0
6
42
Ariana Grande - Z100 iHeart Radio Jingle Ball 2016 (HDTV-1080i)-ALANiS

Setlist:

  1. Side to Side
    Into You
    Winter Things
    December
    True Love
    Wit It This Christmas
    Be Alright
    Dangerous Woman
Code:
Format                                   : MPEG-TS
File size                                : 583 MiB
Duration                                 : 21 min 30 s
Overall bit rate mode                    : Variable
Overall bit rate                         : 3 791 kb/s

Video
ID                                       : 481 (0x1E1)
Menu ID                                  : 1 (0x1)
Format                                   : AVC
Format/Info                              : Advanced Video Codec
Format profile                           : High@L4
Format settings, CABAC                   : Yes
Format settings, ReFrames                : 3 frames
Codec ID                                 : 27
Duration                                 : 21 min 30 s
Bit rate mode                            : Constant
Bit rate                                 : 3 400 kb/s
Width                                    : 1 920 pixels
Height                                   : 1 080 pixels
Display aspect ratio                     : 16:9
Frame rate                               : 29.970 (30000/1001) FPS
Color space                              : YUV
Chroma subsampling                       : 4:2:0
Bit depth                                : 8 bits
Scan type                                : Interlaced
Scan type, store method                  : Separated fields
Scan order                               : Top Field First
Bits/(Pixel*Frame)                       : 0.055
Stream size                              : 525 MiB (90%)
Color range                              : Limited
Color primaries                          : BT.709
Transfer characteristics                 : BT.709
Matrix coefficients                      : BT.709

Audio
ID                                       : 482 (0x1E2)
Menu ID                                  : 1 (0x1)
Format                                   : MPEG Audio
Format version                           : Version 1
Format profile                           : Layer 2
Codec ID                                 : 3
Duration                                 : 21 min 30 s
Bit rate mode                            : Constant
Bit rate                                 : 192 kb/s
Channel(s)                               : 2 channels
Sampling rate                            : 48.0 kHz
Compression mode                         : Lossy
Stream size                              : 29.5 MiB (5%)
Language                                 : English
Download
***Hidden content cannot be quoted.***
Thank U!
 

Casino Lover76

New Member
Registered
Nov 2, 2019
22
0
1
33
Ariana Grande - Z100 iHeart Radio Jingle Ball 2016 (HDTV-1080i)-ALANiS

Setlist:

  1. Side to Side
    Into You
    Winter Things
    December
    True Love
    Wit It This Christmas
    Be Alright
    Dangerous Woman
Code:
Format                                   : MPEG-TS
File size                                : 583 MiB
Duration                                 : 21 min 30 s
Overall bit rate mode                    : Variable
Overall bit rate                         : 3 791 kb/s

Video
ID                                       : 481 (0x1E1)
Menu ID                                  : 1 (0x1)
Format                                   : AVC
Format/Info                              : Advanced Video Codec
Format profile                           : High@L4
Format settings, CABAC                   : Yes
Format settings, ReFrames                : 3 frames
Codec ID                                 : 27
Duration                                 : 21 min 30 s
Bit rate mode                            : Constant
Bit rate                                 : 3 400 kb/s
Width                                    : 1 920 pixels
Height                                   : 1 080 pixels
Display aspect ratio                     : 16:9
Frame rate                               : 29.970 (30000/1001) FPS
Color space                              : YUV
Chroma subsampling                       : 4:2:0
Bit depth                                : 8 bits
Scan type                                : Interlaced
Scan type, store method                  : Separated fields
Scan order                               : Top Field First
Bits/(Pixel*Frame)                       : 0.055
Stream size                              : 525 MiB (90%)
Color range                              : Limited
Color primaries                          : BT.709
Transfer characteristics                 : BT.709
Matrix coefficients                      : BT.709

Audio
ID                                       : 482 (0x1E2)
Menu ID                                  : 1 (0x1)
Format                                   : MPEG Audio
Format version                           : Version 1
Format profile                           : Layer 2
Codec ID                                 : 3
Duration                                 : 21 min 30 s
Bit rate mode                            : Constant
Bit rate                                 : 192 kb/s
Channel(s)                               : 2 channels
Sampling rate                            : 48.0 kHz
Compression mode                         : Lossy
Stream size                              : 29.5 MiB (5%)
Language                                 : English
Download
***Hidden content cannot be quoted.***
 

paola

New Member
Registered
Aug 17, 2019
11
0
1
32
Ariana Grande - Z100 iHeart Radio Jingle Ball 2016 (HDTV-1080i)-ALANiS

Setlist:

  1. Side to Side
    Into You
    Winter Things
    December
    True Love
    Wit It This Christmas
    Be Alright
    Dangerous Woman
Code:
Format                                   : MPEG-TS
File size                                : 583 MiB
Duration                                 : 21 min 30 s
Overall bit rate mode                    : Variable
Overall bit rate                         : 3 791 kb/s

Video
ID                                       : 481 (0x1E1)
Menu ID                                  : 1 (0x1)
Format                                   : AVC
Format/Info                              : Advanced Video Codec
Format profile                           : High@L4
Format settings, CABAC                   : Yes
Format settings, ReFrames                : 3 frames
Codec ID                                 : 27
Duration                                 : 21 min 30 s
Bit rate mode                            : Constant
Bit rate                                 : 3 400 kb/s
Width                                    : 1 920 pixels
Height                                   : 1 080 pixels
Display aspect ratio                     : 16:9
Frame rate                               : 29.970 (30000/1001) FPS
Color space                              : YUV
Chroma subsampling                       : 4:2:0
Bit depth                                : 8 bits
Scan type                                : Interlaced
Scan type, store method                  : Separated fields
Scan order                               : Top Field First
Bits/(Pixel*Frame)                       : 0.055
Stream size                              : 525 MiB (90%)
Color range                              : Limited
Color primaries                          : BT.709
Transfer characteristics                 : BT.709
Matrix coefficients                      : BT.709

Audio
ID                                       : 482 (0x1E2)
Menu ID                                  : 1 (0x1)
Format                                   : MPEG Audio
Format version                           : Version 1
Format profile                           : Layer 2
Codec ID                                 : 3
Duration                                 : 21 min 30 s
Bit rate mode                            : Constant
Bit rate                                 : 192 kb/s
Channel(s)                               : 2 channels
Sampling rate                            : 48.0 kHz
Compression mode                         : Lossy
Stream size                              : 29.5 MiB (5%)
Language                                 : English
Download
***Hidden content cannot be quoted.***
thank you so much!!!
 

juan321123

New Member
Registered
Dec 19, 2018
3
0
1
21
Ariana Grande - Z100 iHeart Radio Jingle Ball 2016 (HDTV-1080i)-ALANiS

Setlist:

  1. Side to Side
    Into You
    Winter Things
    December
    True Love
    Wit It This Christmas
    Be Alright
    Dangerous Woman
Code:
Format                                   : MPEG-TS
File size                                : 583 MiB
Duration                                 : 21 min 30 s
Overall bit rate mode                    : Variable
Overall bit rate                         : 3 791 kb/s

Video
ID                                       : 481 (0x1E1)
Menu ID                                  : 1 (0x1)
Format                                   : AVC
Format/Info                              : Advanced Video Codec
Format profile                           : High@L4
Format settings, CABAC                   : Yes
Format settings, ReFrames                : 3 frames
Codec ID                                 : 27
Duration                                 : 21 min 30 s
Bit rate mode                            : Constant
Bit rate                                 : 3 400 kb/s
Width                                    : 1 920 pixels
Height                                   : 1 080 pixels
Display aspect ratio                     : 16:9
Frame rate                               : 29.970 (30000/1001) FPS
Color space                              : YUV
Chroma subsampling                       : 4:2:0
Bit depth                                : 8 bits
Scan type                                : Interlaced
Scan type, store method                  : Separated fields
Scan order                               : Top Field First
Bits/(Pixel*Frame)                       : 0.055
Stream size                              : 525 MiB (90%)
Color range                              : Limited
Color primaries                          : BT.709
Transfer characteristics                 : BT.709
Matrix coefficients                      : BT.709

Audio
ID                                       : 482 (0x1E2)
Menu ID                                  : 1 (0x1)
Format                                   : MPEG Audio
Format version                           : Version 1
Format profile                           : Layer 2
Codec ID                                 : 3
Duration                                 : 21 min 30 s
Bit rate mode                            : Constant
Bit rate                                 : 192 kb/s
Channel(s)                               : 2 channels
Sampling rate                            : 48.0 kHz
Compression mode                         : Lossy
Stream size                              : 29.5 MiB (5%)
Language                                 : English
Download
***Hidden content cannot be quoted.***
THANKS!
 

Sweetener

New Member
Registered
Jun 21, 2018
13
0
1
20
Ariana Grande - Z100 iHeart Radio Jingle Ball 2016 (HDTV-1080i)-ALANiS

Setlist:

  1. Side to Side
    Into You
    Winter Things
    December
    True Love
    Wit It This Christmas
    Be Alright
    Dangerous Woman
Code:
Format                                   : MPEG-TS
File size                                : 583 MiB
Duration                                 : 21 min 30 s
Overall bit rate mode                    : Variable
Overall bit rate                         : 3 791 kb/s

Video
ID                                       : 481 (0x1E1)
Menu ID                                  : 1 (0x1)
Format                                   : AVC
Format/Info                              : Advanced Video Codec
Format profile                           : High@L4
Format settings, CABAC                   : Yes
Format settings, ReFrames                : 3 frames
Codec ID                                 : 27
Duration                                 : 21 min 30 s
Bit rate mode                            : Constant
Bit rate                                 : 3 400 kb/s
Width                                    : 1 920 pixels
Height                                   : 1 080 pixels
Display aspect ratio                     : 16:9
Frame rate                               : 29.970 (30000/1001) FPS
Color space                              : YUV
Chroma subsampling                       : 4:2:0
Bit depth                                : 8 bits
Scan type                                : Interlaced
Scan type, store method                  : Separated fields
Scan order                               : Top Field First
Bits/(Pixel*Frame)                       : 0.055
Stream size                              : 525 MiB (90%)
Color range                              : Limited
Color primaries                          : BT.709
Transfer characteristics                 : BT.709
Matrix coefficients                      : BT.709

Audio
ID                                       : 482 (0x1E2)
Menu ID                                  : 1 (0x1)
Format                                   : MPEG Audio
Format version                           : Version 1
Format profile                           : Layer 2
Codec ID                                 : 3
Duration                                 : 21 min 30 s
Bit rate mode                            : Constant
Bit rate                                 : 192 kb/s
Channel(s)                               : 2 channels
Sampling rate                            : 48.0 kHz
Compression mode                         : Lossy
Stream size                              : 29.5 MiB (5%)
Language                                 : English
Download
***Hidden content cannot be quoted.***
thanks
 

Andre Rodrigues

New Member
Registered
Mar 9, 2020
4
0
1
21
Ariana Grande - Z100 iHeart Radio Jingle Ball 2016 (HDTV-1080i)-ALANiS

Setlist:

  1. Side to Side
    Into You
    Winter Things
    December
    True Love
    Wit It This Christmas
    Be Alright
    Dangerous Woman
Code:
Format                                   : MPEG-TS
File size                                : 583 MiB
Duration                                 : 21 min 30 s
Overall bit rate mode                    : Variable
Overall bit rate                         : 3 791 kb/s

Video
ID                                       : 481 (0x1E1)
Menu ID                                  : 1 (0x1)
Format                                   : AVC
Format/Info                              : Advanced Video Codec
Format profile                           : High@L4
Format settings, CABAC                   : Yes
Format settings, ReFrames                : 3 frames
Codec ID                                 : 27
Duration                                 : 21 min 30 s
Bit rate mode                            : Constant
Bit rate                                 : 3 400 kb/s
Width                                    : 1 920 pixels
Height                                   : 1 080 pixels
Display aspect ratio                     : 16:9
Frame rate                               : 29.970 (30000/1001) FPS
Color space                              : YUV
Chroma subsampling                       : 4:2:0
Bit depth                                : 8 bits
Scan type                                : Interlaced
Scan type, store method                  : Separated fields
Scan order                               : Top Field First
Bits/(Pixel*Frame)                       : 0.055
Stream size                              : 525 MiB (90%)
Color range                              : Limited
Color primaries                          : BT.709
Transfer characteristics                 : BT.709
Matrix coefficients                      : BT.709

Audio
ID                                       : 482 (0x1E2)
Menu ID                                  : 1 (0x1)
Format                                   : MPEG Audio
Format version                           : Version 1
Format profile                           : Layer 2
Codec ID                                 : 3
Duration                                 : 21 min 30 s
Bit rate mode                            : Constant
Bit rate                                 : 192 kb/s
Channel(s)                               : 2 channels
Sampling rate                            : 48.0 kHz
Compression mode                         : Lossy
Stream size                              : 29.5 MiB (5%)
Language                                 : English
Download
***Hidden content cannot be quoted.***