WEBRIP Armin van Buuren - The Flying Dutch Amsterdam 2016 (WEBRIP-1080p)

NCURBAN

Well-Known Member
Administrative
May 25, 2016
3,347
3,859
113
Armin van Buuren - The Flying Dutch Amsterdam 2016 (WEBRIP-1080p)


Setlist:
  1. Human Resource - Dominator (Armin van Buuren 2016 Remix)
  2. Armin van Buuren & W&W vs. Alan Walker & Iselin Solheim & Dash Berlin - If It Ain't Dutch vs. Faded (Armin van Buuren Mashup)
  3. Armin van Buuren ft. Kensington - Heading Up High (First State Remix)
  4. Super8 & Tab - Mega
  5. Armin Van Buuren vs. Cosmic Gate ft. Cimo Fränkel - Yai vs. Strong Ones vs. Embargo (Armin van Buuren Mashup)
  6. Dimitri Vegas & Like Mike vs. W&W - Arcade
  7. Promise Land - X-Press w/ Warp Brothers vs. Aquagen - Phatt Bass
  8. Tom Staar & Robbie Rivera - The Funkatron
  9. Bellini - Samba De Janeiro (Dustin Lenji & Jeremia Jones Bootleg)
  10. Hardwell & Armin van Buuren - Off The Hook   (ID Remix)
  11. Mr. Probz & W&W vs. ID vs. Wildstylez & Audiotricz vs. Fast Distance - Waves vs. ID vs. Turn The Music Up vs. Frontera (Armin van Buuren Tomorrowland Mashup)
  12. Dr. Dre ft. Snoop Dogg - Still D.R.E. (W&W Festival Mix)
  13. Faithless - We Come 1 2.0 (Armin van Buuren Remix)
  14. Arkham Knights vs. The Killers - Knightfall Brightside (Sandro Vanniel Mashup)
  15. Armin van Buuren vs. The White Stripes vs. Zombie Nation vs. Fisherman & Hawkins & Gal Abutbul - Ping Pong vs. Seven Nation Army vs. Kernkraft 400 vs. United (Armin van Buuren Tomorrowland Edit)
  16. Mark Sherry meets Space Frog & Derb - Follow Me (Psyburst Mix)
  17. Armin van Buuren ft. Mr. Probz - Another You (Mark Sixma Remix)
  18. Armin van Buuren & Trevor Guthrie & W&W vs. Marco Borsato - This Is What It Feels Like vs. This Is Rood (Armin van Buuren Mashup)
Code:
Format                                   : MPEG-4
Format profile                           : Base Media
Codec ID                                 : isom
File size                                : 1.94 GiB
Duration                                 : 1h 2mn
Overall bit rate                         : 4 403 Kbps
Writing application                      : Lavf55.48.100

Video
ID                                       : 2
Format                                   : AVC
Format/Info                              : Advanced Video Codec
Format profile                           : High@L4
Format settings, CABAC                   : Yes
Format settings, ReFrames                : 2 frames
Codec ID                                 : avc1
Codec ID/Info                            : Advanced Video Coding
Duration                                 : 1h 2mn
Bit rate                                 : 4 271 Kbps
Width                                    : 1 920 pixels
Height                                   : 1 080 pixels
Display aspect ratio                     : 16:9
Frame rate mode                          : Constant
Frame rate                               : 25.000 fps
Color space                              : YUV
Chroma subsampling                       : 4:2:0
Bit depth                                : 8 bits
Scan type                                : Progressive
Bits/(Pixel*Frame)                       : 0.082
Stream size                              : 1.88 GiB (97%)
Color range                              : Limited
Color primaries                          : BT.709
Transfer characteristics                 : BT.709
Matrix coefficients                      : BT.709

Audio
ID                                       : 1
Format                                   : AAC
Format/Info                              : Advanced Audio Codec
Format profile                           : LC
Codec ID                                 : 40
Duration                                 : 1h 2mn
Bit rate mode                            : Constant
Bit rate                                 : 126 Kbps
Channel(s)                               : 2 channels
Channel positions                        : Front: L R
Sampling rate                            : 44.1 KHz
Compression mode                         : Lossy
Stream size                              : 56.6 MiB (3%)

Download
[HIDE-REPLY]MEGA[/HIDE-REPLY]