HDTV AURORA - I Went Too Far (The Late Show with Stephen Colbert 2016) [HDTV-1080i]

NCURBAN

Well-Known Member
Administrative
May 25, 2016
3,347
3,620
113
AURORA - I Went Too Far (The Late Show with Stephen Colbert 2016) [HDTV-1080i]



Code:
Format                                   : MPEG-TS
File size                                : 398 MiB
Duration                                 : 4mn 6s
Overall bit rate mode                    : Variable
Overall bit rate                         : 13.5 Mbps
Movie name                               : AM14AM30

Video
ID                                       : 547 (0x223)
Menu ID                                  : 1 (0x1)
Format                                   : MPEG Video
Format version                           : Version 2
Format profile                           : Main@High
Format settings, BVOP                    : Yes
Format settings, Matrix                  : Custom
Format settings, GOP                     : Variable
Format settings, picture structure       : Frame
Codec ID                                 : 2
Duration                                 : 4mn 6s
Bit rate mode                            : Variable
Bit rate                                 : 12.4 Mbps
Maximum bit rate                         : 24.0 Mbps
Width                                    : 1 920 pixels
Height                                   : 1 080 pixels
Display aspect ratio                     : 16:9
Frame rate                               : 29.970 fps
Color space                              : YUV
Chroma subsampling                       : 4:2:0
Bit depth                                : 8 bits
Scan type                                : Interlaced
Scan order                               : Top Field First
Compression mode                         : Lossy
Bits/(Pixel*Frame)                       : 0.200
Time code of first frame                 : 00:00:00;00
Time code source                         : Group of pictures header
Stream size                              : 364 MiB (92%)

Audio
ID                                       : 545 (0x221)
Menu ID                                  : 1 (0x1)
Format                                   : AC-3
Format/Info                              : Audio Coding 3
Mode extension                           : CM (complete main)
Format settings, Endianness              : Big
Codec ID                                 : 129
Duration                                 : 4mn 6s
Bit rate mode                            : Constant
Bit rate                                 : 448 Kbps
Channel(s)                               : 6 channels
Channel positions                        : Front: L C R, Side: L R, LFE
Sampling rate                            : 48.0 KHz
Compression mode                         : Lossy
Delay relative to video                  : 18ms
Stream size                              : 13.1 MiB (3%)
Language                                 : English

Download
[HIDE-REPLY]MEGA[/HIDE-REPLY]