1. If this is your first visit, be sure to check out the FAQ by clicking the link above. You may have to register before you can access the full forum. Follow the link above to Register. To start viewing messages, select the forum that you want to visit from the selection below.
    Dismiss Notice

FEED AVICII - Rock In Rio Lisboa 2016 (FEED-1080i)-HDMania

Discussion in 'Live Performances & Concerts' started by NCURBAN, Jun 3, 2016.

  1. NCURBAN

    NCURBAN Well-Known Member Administrative

    Joined:
    May 25, 2016
    Messages:
    2,728
    Likes Received:
    965
    Trophy Points:
    113
    AVICII - Rock In Rio Lisboa 2016 (FEED-1080i)-HDMania

    [​IMG]
    Setlist:
    Soon...

    Code:
    Format                                   : MPEG-TS
    File size                                : 9.63 GiB
    Duration                                 : 1h 29mn
    Overall bit rate mode                    : Variable
    Overall bit rate                         : 15.3 Mbps
    
    Video
    ID                                       : 512 (0x200)
    Menu ID                                  : 1 (0x1)
    Format                                   : AVC
    Format/Info                              : Advanced Video Codec
    Format profile                           : Main@L4
    Format settings, CABAC                   : Yes
    Format settings, ReFrames                : 4 frames
    Format settings, GOP                     : M=3, N=15
    Codec ID                                 : 27
    Duration                                 : 1h 29mn
    Bit rate mode                            : Variable
    Bit rate                                 : 14.2 Mbps
    Maximum bit rate                         : 14.5 Mbps
    Width                                    : 1 920 pixels
    Height                                   : 1 080 pixels
    Display aspect ratio                     : 16:9
    Frame rate                               : 25.000 fps
    Color space                              : YUV
    Chroma subsampling                       : 4:2:0
    Bit depth                                : 8 bits
    Scan type                                : Interlaced
    Scan order                               : Top Field First
    Bits/(Pixel*Frame)                       : 0.274
    Stream size                              : 8.91 GiB (93%)
    Color range                              : Limited
    Color primaries                          : BT.709
    Transfer characteristics                 : BT.709
    Matrix coefficients                      : BT.709
    
    Audio
    ID                                       : 4112 (0x1010)
    Menu ID                                  : 1 (0x1)
    Format                                   : MPEG Audio
    Format version                           : Version 1
    Format profile                           : Layer 2
    Mode                                     : Dual mono
    Codec ID                                 : 3
    Duration                                 : 1h 29mn
    Bit rate mode                            : Constant
    Bit rate                                 : 384 Kbps
    Channel(s)                               : 2 channels
    Sampling rate                            : 48.0 KHz
    Compression mode                         : Lossy
    Delay relative to video                  : 4ms
    Stream size                              : 247 MiB (3%)
    Language                                 : English
    Language, more info                      : Clean effects

    Download
    Hidden Content:
    You must reply before you can see the hidden data contained here.
     
    Last edited: Jun 13, 2016
  2. Loading...


  3. lagoslulz

    lagoslulz New Member Registered

    Joined:
    May 16, 2018
    Messages:
    15
    Likes Received:
    0
    Trophy Points:
    1
    Crowd is epic.
     
  4. Pablooo

    Pablooo New Member Registered

    Joined:
    Apr 11, 2019
    Messages:
    1
    Likes Received:
    0
    Trophy Points:
    1
    Seed please. Avicii is the best.