FEED Backstreet Boys - Show 'Em What You're Made Of 2015 (FEED-1080i)

NCURBAN

Well-Known Member
Administrative
May 25, 2016
3,360
4,206
113
Backstreet Boys - Show 'Em What You're Made Of 2015 (FEED-1080i)


Gener: Pop
Live At: Dominion Theatre London
Date: Feb 26, 2015
Setlist:
  1. I Want It That Way
  2. As Long As You Love Me
  3. Show 'Em (What You're Made Of)
  4. Shape of my Heart
  5. In a World Like This
Code:
Format                                   : MPEG-TS
File size                                : 3.85 GiB
Duration                                 : 29 min 51 s
Overall bit rate mode                    : Variable
Overall bit rate                         : 18.4 Mb/s

Video
ID                                       : 308 (0x134)
Menu ID                                  : 1 (0x1)
Format                                   : MPEG Video
Format version                           : Version 2
Format profile                           : Main@High
Format settings, BVOP                    : No
Format settings, Matrix                  : Custom
Format settings, GOP                     : N=12
Format settings, picture structure       : Frame
Codec ID                                 : 2
Duration                                 : 29 min 51 s
Bit rate mode                            : Constant
Bit rate                                 : 16.8 Mb/s
Maximum bit rate                         : 17.2 Mb/s
Width                                    : 1 920 pixels
Height                                   : 1 080 pixels
Display aspect ratio                     : 16:9
Frame rate                               : 25.000 FPS
Color space                              : YUV
Chroma subsampling                       : 4:2:0
Bit depth                                : 8 bits
Scan type                                : Interlaced
Scan order                               : Top Field First
Compression mode                         : Lossy
Bits/(Pixel*Frame)                       : 0.324
Time code of first frame                 : 00:00:00:00
Time code source                         : Group of pictures header
GOP, Open/Closed                         : Open
GOP, Open/Closed of first frame          : Closed
Stream size                              : 3.51 GiB (91%)

Audio #1
ID                                       : 256 (0x100)
Menu ID                                  : 1 (0x1)
Format                                   : AC-3
Format/Info                              : Audio Coding 3
Format settings, Endianness              : Big
Codec ID                                 : 129
Duration                                 : 29 min 51 s
Bit rate mode                            : Constant
Bit rate                                 : 448 kb/s
Channel(s)                               : 6 channels
Channel positions                        : Front: L C R, Side: L R, LFE
Sampling rate                            : 48.0 kHz
Frame rate                               : 31.250 FPS (1536 spf)
Bit depth                                : 16 bits
Compression mode                         : Lossy
Delay relative to video                  : 6 ms
Stream size                              : 95.7 MiB (2%)
Language                                 : udf
Service kind                             : Complete Main

Audio #2
ID                                       : 257 (0x101)
Menu ID                                  : 1 (0x1)
Format                                   : MPEG Audio
Format version                           : Version 1
Format profile                           : Layer 2
Codec ID                                 : 3
Duration                                 : 29 min 51 s
Bit rate mode                            : Constant
Bit rate                                 : 256 kb/s
Channel(s)                               : 2 channels
Sampling rate                            : 48.0 kHz
Compression mode                         : Lossy
Delay relative to video                  : 6 ms
Stream size                              : 54.7 MiB (1%)
Language                                 : udf
Download
You must reply before you can see the hidden data contained here.