FEED Bastille - Glastonbury 2016 (FEED-1080)-HDMania

NCURBAN

Well-Known Member
Administrative
May 25, 2016
3,360
4,206
113
Bastille - Glastonbury 2016 (FEED-1080)-HDMania


Setlist:
  1. Bad Blood
  2. Laura Palmer
  3. Send Them Off
  4. Things We Lost in the Fire
  5. These Streets
  6. Good Grief
  7. Overjoyed
  8. The Currents
  9. Weight of Living, Pt. II
  10. Flaws
  11. Lesser of 2 Evils
  12. Icarus
  13. Snakes
  14. Of the Night
  15. Pompeii

Code:
[LEFT]Format                                   : MPEG-TS
File size                                : 5.06 GiB
Duration                                 : 59mn 51s
Overall bit rate mode                    : Variable
Overall bit rate                         : 12.1 Mbps

Video
ID                                       : 33 (0x21)
Menu ID                                  : 1 (0x1)
Format                                   : AVC
Format/Info                              : Advanced Video Codec
Format profile                           : High@L4.1
Format settings, CABAC                   : Yes
Format settings, ReFrames                : 4 frames
Format settings, GOP                     : M=4, N=32
Codec ID                                 : 27
Duration                                 : 59mn 51s
Bit rate                                 : 11.2 Mbps
Width                                    : 1 920 pixels
Height                                   : 1 080 pixels
Display aspect ratio                     : 16:9
Frame rate                               : 25.000 fps
Standard                                 : PAL
Color space                              : YUV
Chroma subsampling                       : 4:2:0
Bit depth                                : 8 bits
Scan type                                : Interlaced
Scan order                               : Top Field First
Bits/(Pixel*Frame)                       : 0.217
Stream size                              : 4.70 GiB (93%)
Color range                              : Limited
Color primaries                          : BT.709
Transfer characteristics                 : BT.709
Matrix coefficients                      : BT.709

Audio
ID                                       : 34 (0x22)
Menu ID                                  : 1 (0x1)
Format                                   : MPEG Audio
Format version                           : Version 1
Format profile                           : Layer 2
Codec ID                                 : 4
Duration                                 : 59mn 50s
Bit rate mode                            : Constant
Bit rate                                 : 256 Kbps
Channel(s)                               : 2 channels
Sampling rate                            : 48.0 KHz
Compression mode                         : Lossy
Delay relative to video                  : 110ms
Stream size                              : 110 MiB (2%)
Language                                 : English
Language, more info                      : Clean effects[/LEFT]

Download
[HIDE-REPLY]MEGA[/HIDE-REPLY]