YouTube Bebe Rexha feat. G-Eazy - F.F.F. (Fuck Fake Friends) [YouTube 1080p]

NCURBAN

Well-Known Member
Administrative
May 25, 2016
3,347
3,610
113
Bebe Rexha feat. G-Eazy - F.F.F. (Fuck Fake Friends) [YouTube 1080p]



Gener: Pop
Released: Mar Mar 9, 2017
Copyright: (C) 2017 Warner Bros. Records Inc.
Code:
Format                                   : MPEG-4
Format profile                           : Base Media
Codec ID                                 : isom (isom/iso2/avc1/mp41)
File size                                : 37.2 MiB
Duration                                 : 3 min 29 s
Overall bit rate                         : 1 487 kb/s
Writing application                      : Lavf56.40.101

Video
ID                                       : 1
Format                                   : AVC
Format/Info                              : Advanced Video Codec
Format profile                           : High@L4
Format settings, CABAC                   : Yes
Format settings, ReFrames                : 3 frames
Codec ID                                 : avc1
Codec ID/Info                            : Advanced Video Coding
Duration                                 : 3 min 29 s
Duration_FirstFrame                      : -40 ms
Bit rate                                 : 1 355 kb/s
Width                                    : 1 920 pixels
Height                                   : 720 pixels
Display aspect ratio                     : 2.667
Frame rate mode                          : Variable
Frame rate                               : 25.000 FPS
Minimum frame rate                       : 25.000 FPS
Maximum frame rate                       : 25.014 FPS
Color space                              : YUV
Chroma subsampling                       : 4:2:0
Bit depth                                : 8 bits
Scan type                                : Progressive
Bits/(Pixel*Frame)                       : 0.039
Stream size                              : 33.9 MiB (91%)
Color range                              : Limited
Color primaries                          : BT.709
Transfer characteristics                 : BT.709
Matrix coefficients                      : BT.709

Audio
ID                                       : 2
Format                                   : AAC
Format/Info                              : Advanced Audio Codec
Format profile                           : LC
Codec ID                                 : 40
Duration                                 : 3 min 29 s
Bit rate mode                            : Constant
Bit rate                                 : 126 kb/s
Channel(s)                               : 2 channels
Channel positions                        : Front: L R
Sampling rate                            : 44.1 kHz
Frame rate                               : 43.066 FPS (1024 spf)
Compression mode                         : Lossy
Stream size                              : 3.14 MiB (8%)
Default                                  : Yes
Alternate group                          : 1
Download
You must reply before you can see the hidden data contained here.
 

xXIMANXx

Member
Registered
Oct 31, 2018
376
6
18
20
Bebe Rexha feat. G-Eazy - F.F.F. (Fuck Fake Friends) [YouTube 1080p]




Code:
Format                                   : MPEG-4
Format profile                           : Base Media
Codec ID                                 : isom (isom/iso2/avc1/mp41)
File size                                : 37.2 MiB
Duration                                 : 3 min 29 s
Overall bit rate                         : 1 487 kb/s
Writing application                      : Lavf56.40.101

Video
ID                                       : 1
Format                                   : AVC
Format/Info                              : Advanced Video Codec
Format profile                           : High@L4
Format settings, CABAC                   : Yes
Format settings, ReFrames                : 3 frames
Codec ID                                 : avc1
Codec ID/Info                            : Advanced Video Coding
Duration                                 : 3 min 29 s
Duration_FirstFrame                      : -40 ms
Bit rate                                 : 1 355 kb/s
Width                                    : 1 920 pixels
Height                                   : 720 pixels
Display aspect ratio                     : 2.667
Frame rate mode                          : Variable
Frame rate                               : 25.000 FPS
Minimum frame rate                       : 25.000 FPS
Maximum frame rate                       : 25.014 FPS
Color space                              : YUV
Chroma subsampling                       : 4:2:0
Bit depth                                : 8 bits
Scan type                                : Progressive
Bits/(Pixel*Frame)                       : 0.039
Stream size                              : 33.9 MiB (91%)
Color range                              : Limited
Color primaries                          : BT.709
Transfer characteristics                 : BT.709
Matrix coefficients                      : BT.709

Audio
ID                                       : 2
Format                                   : AAC
Format/Info                              : Advanced Audio Codec
Format profile                           : LC
Codec ID                                 : 40
Duration                                 : 3 min 29 s
Bit rate mode                            : Constant
Bit rate                                 : 126 kb/s
Channel(s)                               : 2 channels
Channel positions                        : Front: L R
Sampling rate                            : 44.1 kHz
Frame rate                               : 43.066 FPS (1024 spf)
Compression mode                         : Lossy
Stream size                              : 3.14 MiB (8%)
Default                                  : Yes
Alternate group                          : 1
Download
***Hidden content cannot be quoted.***