HDTV Bebe Rexha - I Got You (Good Morning America 2017) [HDTV-720p]

NCURBAN

Well-Known Member
Administrative
May 25, 2016
3,358
4,096
113
Bebe Rexha - I Got You (Good Morning America 2017) [HDTV-720p]


Gener: Pop
At: Good Morning America
Date: 1/13/2017
Code:
Format                                   : MPEG-TS
File size                                : 324 MiB
Duration                                 : 4 min 1 s
Overall bit rate mode                    : Variable
Overall bit rate                         : 11.3 Mb/s
Movie name                               : GOOD MORNING AMERICA
Law rating                               : None

Video
ID                                       : 570 (0x23A)
Menu ID                                  : 1 (0x1)
Format                                   : MPEG Video
Format version                           : Version 2
Format profile                           : Main@High
Format settings, BVOP                    : Yes
Format settings, Matrix                  : Custom
Format settings, GOP                     : Variable
Codec ID                                 : 2
Duration                                 : 4 min 1 s
Bit rate mode                            : Variable
Bit rate                                 : 10.3 Mb/s
Maximum bit rate                         : 24.0 Mb/s
Width                                    : 1 280 pixels
Height                                   : 720 pixels
Display aspect ratio                     : 16:9
Active Format Description                : Letterbox 16:9 image
Frame rate                               : 59.940 (60000/1001) FPS
Color space                              : YUV
Chroma subsampling                       : 4:2:0
Bit depth                                : 8 bits
Scan type                                : Progressive
Compression mode                         : Lossy
Bits/(Pixel*Frame)                       : 0.187
Time code of first frame                 : 00:00:00;00
Time code source                         : Group of pictures header
GOP, Open/Closed                         : Open
GOP, Open/Closed of first frame          : Closed
Stream size                              : 297 MiB (92%)

Audio
ID                                       : 568 (0x238)
Menu ID                                  : 1 (0x1)
Format                                   : AC-3
Format/Info                              : Audio Coding 3
Mode extension                           : CM (complete main)
Format settings, Endianness              : Big
Codec ID                                 : 129
Duration                                 : 4 min 1 s
Bit rate mode                            : Constant
Bit rate                                 : 384 kb/s
Channel(s)                               : 6 channels
Channel positions                        : Front: L C R, Side: L R, LFE
Sampling rate                            : 48.0 kHz
Frame rate                               : 31.250 FPS (1536 spf)
Bit depth                                : 16 bits
Compression mode                         : Lossy
Delay relative to video                  : 4 ms
Stream size                              : 11.1 MiB (3%)
Language                                 : English
Download
You must reply before you can see the hidden data contained here.