HDTV Bebe Rexha - I Got You (The Tonight Show Starring Jimmy Fallon 2017) [HDTV-1080i]

NCURBAN

Well-Known Member
Administrative
May 25, 2016
3,360
4,162
113
Bebe Rexha - I Got You (The Tonight Show Starring Jimmy Fallon 2017) [HDTV-1080i]



Genre: Pop, Rock
At: The Tonight Show Starring Jimmy Fallon
Date: Jan 16, 2017
Code:
Format                                   : MPEG-TS
File size                                : 429 MiB
Duration                                 : 4 min 33 s
Overall bit rate mode                    : Variable
Overall bit rate                         : 13.2 Mb/s
Movie name                               : Tonight Show Jimmy Fallon
Law rating                               : TV-14

Video
ID                                       : 575 (0x23F)
Menu ID                                  : 1 (0x1)
Format                                   : MPEG Video
Format version                           : Version 2
Format profile                           : Main@High
Format settings, BVOP                    : Yes
Format settings, Matrix                  : Default
Format settings, GOP                     : Variable
Format settings, picture structure       : Frame
Codec ID                                 : 2
Duration                                 : 4 min 33 s
Bit rate mode                            : Variable
Bit rate                                 : 12.1 Mb/s
Maximum bit rate                         : 80.0 Mb/s
Width                                    : 1 920 pixels
Height                                   : 1 080 pixels
Display aspect ratio                     : 16:9
Frame rate                               : 29.970 (30000/1001) FPS
Color space                              : YUV
Chroma subsampling                       : 4:2:0
Bit depth                                : 8 bits
Scan type                                : Interlaced
Scan order                               : Top Field First
Compression mode                         : Lossy
Bits/(Pixel*Frame)                       : 0.195
Time code of first frame                 : 00:00:00;00
Time code source                         : Group of pictures header
GOP, Open/Closed                         : Closed
Stream size                              : 395 MiB (92%)
Color primaries                          : BT.709
Transfer characteristics                 : BT.709
Matrix coefficients                      : BT.709

Audio
ID                                       : 573 (0x23D)
Menu ID                                  : 1 (0x1)
Format                                   : AC-3
Format/Info                              : Audio Coding 3
Mode extension                           : CM (complete main)
Format settings, Endianness              : Big
Codec ID                                 : 129
Duration                                 : 4 min 33 s
Bit rate mode                            : Constant
Bit rate                                 : 384 kb/s
Channel(s)                               : 6 channels
Channel positions                        : Front: L C R, Side: L R, LFE
Sampling rate                            : 48.0 kHz
Frame rate                               : 31.250 FPS (1536 spf)
Bit depth                                : 16 bits
Compression mode                         : Lossy
Delay relative to video                  : 30 ms
Stream size                              : 12.5 MiB (3%)
Language                                 : English

Download
You must reply before you can see the hidden data contained here.
 
  • Like
Reactions: Darin

xXIMANXx

Member
Registered
Oct 31, 2018
384
6
18
20
Bebe Rexha - I Got You (The Tonight Show Starring Jimmy Fallon 2017) [HDTV-1080i]




Code:
Format                                   : MPEG-TS
File size                                : 429 MiB
Duration                                 : 4 min 33 s
Overall bit rate mode                    : Variable
Overall bit rate                         : 13.2 Mb/s
Movie name                               : Tonight Show Jimmy Fallon
Law rating                               : TV-14

Video
ID                                       : 575 (0x23F)
Menu ID                                  : 1 (0x1)
Format                                   : MPEG Video
Format version                           : Version 2
Format profile                           : Main@High
Format settings, BVOP                    : Yes
Format settings, Matrix                  : Default
Format settings, GOP                     : Variable
Format settings, picture structure       : Frame
Codec ID                                 : 2
Duration                                 : 4 min 33 s
Bit rate mode                            : Variable
Bit rate                                 : 12.1 Mb/s
Maximum bit rate                         : 80.0 Mb/s
Width                                    : 1 920 pixels
Height                                   : 1 080 pixels
Display aspect ratio                     : 16:9
Frame rate                               : 29.970 (30000/1001) FPS
Color space                              : YUV
Chroma subsampling                       : 4:2:0
Bit depth                                : 8 bits
Scan type                                : Interlaced
Scan order                               : Top Field First
Compression mode                         : Lossy
Bits/(Pixel*Frame)                       : 0.195
Time code of first frame                 : 00:00:00;00
Time code source                         : Group of pictures header
GOP, Open/Closed                         : Closed
Stream size                              : 395 MiB (92%)
Color primaries                          : BT.709
Transfer characteristics                 : BT.709
Matrix coefficients                      : BT.709

Audio
ID                                       : 573 (0x23D)
Menu ID                                  : 1 (0x1)
Format                                   : AC-3
Format/Info                              : Audio Coding 3
Mode extension                           : CM (complete main)
Format settings, Endianness              : Big
Codec ID                                 : 129
Duration                                 : 4 min 33 s
Bit rate mode                            : Constant
Bit rate                                 : 384 kb/s
Channel(s)                               : 6 channels
Channel positions                        : Front: L C R, Side: L R, LFE
Sampling rate                            : 48.0 kHz
Frame rate                               : 31.250 FPS (1536 spf)
Bit depth                                : 16 bits
Compression mode                         : Lossy
Delay relative to video                  : 30 ms
Stream size                              : 12.5 MiB (3%)
Language                                 : English

Download
***Hidden content cannot be quoted.***