BD-RIP Beyonce - I Am... Yours. An Intimate Performance at Wynn Las Vegas (2009) [BluRay-720p]-HZ

NCURBAN

Well-Known Member
Administrative
May 25, 2016
3,360
4,184
113
Beyonce - I Am... Yours. An Intimate Performance at Wynn Las Vegas (2009) [BluRay-720p]-HZ




Gener: R&B/Soul
Tour: I Am... Yours
At: Encore Theater, Las Vegas, NV, USA
Date: 2009
Setlist:
  1. Hello
  2. Halo
  3. Irreplaceable
  4. Sweet Dreams (Acoustic)
  5. Dangerously in Love (Destiny’s Child song) (with "Sweet Love" snippet)
  6. If I Were a Boy (with "You Oughta Know"… more )
  7. Scared of Lonely
  8. That's Why You're Beautiful (with "The Beautiful Ones" snippet by Prince)
  9. Satellites
  10. Resentment
  11. Déjà Vu (with Ella Fitzgerald scatting)
  12. I Wanna Be Where You Are (Michael Jackson cover)
  13. No, No, No (Destiny’s Child song)
  14. Bug a Boo (Destiny’s Child song)
  15. Bills, Bills, Bills (Destiny’s Child song)
  16. Say My Name (Destiny’s Child song)
  17. Jumpin', Jumpin' (Destiny’s Child song)
  18. Independent Women Part 1 (Destiny’s Child song)
  19. Bootylicious (Destiny’s Child song)
  20. Survivor (Destiny’s Child song)
  21. '03 Bonnie & Clyde (JAY Z cover)
  22. Work It Out
  23. Crazy In Love
  24. Naughty Girl
  25. Get Me Bodied
  26. Single Ladies (Put a Ring on It)
Code:
Format                                   : Matroska
Format version                           : Version 1
File size                                : 7.95 GiB
Duration                                 : 1 h 38 min
Overall bit rate                         : 11.6 Mb/s
Encoded date                             : UTC 2010-01-03 15:10:49
Writing application                      : mkvmerge v2.1.0 ('Another Place To Fall') built on Aug 19 2007 13:40:07
Writing library                          : libebml v0.7.7 + libmatroska v0.8.1

Video
ID                                       : 1
Format                                   : AVC
Format/Info                              : Advanced Video Codec
Format profile                           : High@L4.1
Format settings, CABAC                   : Yes
Format settings, ReFrames                : 8 frames
Codec ID                                 : V_MPEG4/ISO/AVC
Duration                                 : 1 h 38 min
Bit rate                                 : 10.1 Mb/s
Width                                    : 1 280 pixels
Height                                   : 544 pixels
Display aspect ratio                     : 2.35:1
Frame rate mode                          : Constant
Frame rate                               : 23.976 FPS
Color space                              : YUV
Chroma subsampling                       : 4:2:0
Bit depth                                : 8 bits
Scan type                                : Progressive
Bits/(Pixel*Frame)                       : 0.603
Stream size                              : 6.75 GiB (85%)
Writing library                          : x264 core 80 r1376 3feaec2
Encoding settings                        : cabac=1 / ref=8 / deblock=1:-3:-3 / analyse=0x3:0x113 / me=esa / subme=10 / psy=1 / psy_rd=1.0:0.0 / mixed_ref=1 / me_range=24 / chroma_me=1 / trellis=2 / 8x8dct=1 / cqm=0 / deadzone=21,11 / fast_pskip=1 / chroma_qp_offset=-2 / threads=6 / sliced_threads=0 / nr=0 / decimate=1 / mbaff=0 / constrained_intra=0 / bframes=3 / b_pyramid=0 / b_adapt=2 / b_bias=0 / direct=3 / wpredb=1 / wpredp=2 / keyint=250 / keyint_min=25 / scenecut=40 / rc_lookahead=0 / rc=2pass / mbtree=0 / bitrate=10060 / ratetol=1.0 / qcomp=0.60 / qpmin=10 / qpmax=51 / qpstep=4 / cplxblur=20.0 / qblur=0.5 / vbv_maxrate=50000 / vbv_bufsize=50000 / ip_ratio=1.40 / pb_ratio=1.30 / aq=1:1.00
Language                                 : English
Default                                  : Yes
Forced                                   : No

Audio
ID                                       : 2
Format                                   : DTS
Format/Info                              : Digital Theater Systems
Mode                                     : 16
Format settings, Endianness              : Big
Codec ID                                 : A_DTS
Duration                                 : 1 h 38 min
Bit rate mode                            : Constant
Bit rate                                 : 1 510 kb/s
Channel(s)                               : 6 channels
Channel positions                        : Front: L C R, Side: L R, LFE
Sampling rate                            : 48.0 kHz
Frame rate                               : 93.750 FPS (512 spf)
Bit depth                                : 24 bits
Compression mode                         : Lossy
Stream size                              : 1.04 GiB (13%)
Language                                 : English
Default                                  : Yes
Forced                                   : No

Download
You must reply before you can see the hidden data contained here.
 
Last edited:

ramadimas

New Member
Registered
Nov 18, 2017
3
0
1
31
Beyonce - I Am... Yours. An Intimate Performance at Wynn Las Vegas (2009) [BluRay-720p]-HZ




Setlist:

  1. Hello
    Halo
    Irreplaceable
    Sweet Dreams (Acoustic)
    Dangerously in Love (Destiny’s Child song) (with "Sweet Love" snippet)
    If I Were a Boy (with "You Oughta Know"… more )
    Scared of Lonely
    That's Why You're Beautiful (with "The Beautiful Ones" snippet by Prince)
    Satellites
    Resentment
    Déjà Vu (with Ella Fitzgerald scatting)
    I Wanna Be Where You Are (Michael Jackson cover)
    No, No, No (Destiny’s Child song)
    Bug a Boo (Destiny’s Child song)
    Bills, Bills, Bills (Destiny’s Child song)
    Say My Name (Destiny’s Child song)
    Jumpin', Jumpin' (Destiny’s Child song)
    Independent Women Part 1 (Destiny’s Child song)
    Bootylicious (Destiny’s Child song)
    Survivor (Destiny’s Child song)
    '03 Bonnie & Clyde (JAY Z cover)
    Work It Out
    Crazy In Love
    Naughty Girl
    Get Me Bodied
    Single Ladies (Put a Ring on It)
Code:
Format                                   : Matroska
Format version                           : Version 1
File size                                : 7.95 GiB
Duration                                 : 1 h 38 min
Overall bit rate                         : 11.6 Mb/s
Encoded date                             : UTC 2010-01-03 15:10:49
Writing application                      : mkvmerge v2.1.0 ('Another Place To Fall') built on Aug 19 2007 13:40:07
Writing library                          : libebml v0.7.7 + libmatroska v0.8.1

Video
ID                                       : 1
Format                                   : AVC
Format/Info                              : Advanced Video Codec
Format profile                           : High@L4.1
Format settings, CABAC                   : Yes
Format settings, ReFrames                : 8 frames
Codec ID                                 : V_MPEG4/ISO/AVC
Duration                                 : 1 h 38 min
Bit rate                                 : 10.1 Mb/s
Width                                    : 1 280 pixels
Height                                   : 544 pixels
Display aspect ratio                     : 2.35:1
Frame rate mode                          : Constant
Frame rate                               : 23.976 FPS
Color space                              : YUV
Chroma subsampling                       : 4:2:0
Bit depth                                : 8 bits
Scan type                                : Progressive
Bits/(Pixel*Frame)                       : 0.603
Stream size                              : 6.75 GiB (85%)
Writing library                          : x264 core 80 r1376 3feaec2
Encoding settings                        : cabac=1 / ref=8 / deblock=1:-3:-3 / analyse=0x3:0x113 / me=esa / subme=10 / psy=1 / psy_rd=1.0:0.0 / mixed_ref=1 / me_range=24 / chroma_me=1 / trellis=2 / 8x8dct=1 / cqm=0 / deadzone=21,11 / fast_pskip=1 / chroma_qp_offset=-2 / threads=6 / sliced_threads=0 / nr=0 / decimate=1 / mbaff=0 / constrained_intra=0 / bframes=3 / b_pyramid=0 / b_adapt=2 / b_bias=0 / direct=3 / wpredb=1 / wpredp=2 / keyint=250 / keyint_min=25 / scenecut=40 / rc_lookahead=0 / rc=2pass / mbtree=0 / bitrate=10060 / ratetol=1.0 / qcomp=0.60 / qpmin=10 / qpmax=51 / qpstep=4 / cplxblur=20.0 / qblur=0.5 / vbv_maxrate=50000 / vbv_bufsize=50000 / ip_ratio=1.40 / pb_ratio=1.30 / aq=1:1.00
Language                                 : English
Default                                  : Yes
Forced                                   : No

Audio
ID                                       : 2
Format                                   : DTS
Format/Info                              : Digital Theater Systems
Mode                                     : 16
Format settings, Endianness              : Big
Codec ID                                 : A_DTS
Duration                                 : 1 h 38 min
Bit rate mode                            : Constant
Bit rate                                 : 1 510 kb/s
Channel(s)                               : 6 channels
Channel positions                        : Front: L C R, Side: L R, LFE
Sampling rate                            : 48.0 kHz
Frame rate                               : 93.750 FPS (512 spf)
Bit depth                                : 24 bits
Compression mode                         : Lossy
Stream size                              : 1.04 GiB (13%)
Language                                 : English
Default                                  : Yes
Forced                                   : No

Download
***Hidden content cannot be quoted.***
Thank you!
 

Beybroadz

New Member
Registered
Apr 26, 2018
1
0
1
23
Beyonce - I Am... Yours. An Intimate Performance at Wynn Las Vegas (2009) [BluRay-720p]-HZ




Setlist:

  1. Hello
    Halo
    Irreplaceable
    Sweet Dreams (Acoustic)
    Dangerously in Love (Destiny’s Child song) (with "Sweet Love" snippet)
    If I Were a Boy (with "You Oughta Know"… more )
    Scared of Lonely
    That's Why You're Beautiful (with "The Beautiful Ones" snippet by Prince)
    Satellites
    Resentment
    Déjà Vu (with Ella Fitzgerald scatting)
    I Wanna Be Where You Are (Michael Jackson cover)
    No, No, No (Destiny’s Child song)
    Bug a Boo (Destiny’s Child song)
    Bills, Bills, Bills (Destiny’s Child song)
    Say My Name (Destiny’s Child song)
    Jumpin', Jumpin' (Destiny’s Child song)
    Independent Women Part 1 (Destiny’s Child song)
    Bootylicious (Destiny’s Child song)
    Survivor (Destiny’s Child song)
    '03 Bonnie & Clyde (JAY Z cover)
    Work It Out
    Crazy In Love
    Naughty Girl
    Get Me Bodied
    Single Ladies (Put a Ring on It)
Code:
Format                                   : Matroska
Format version                           : Version 1
File size                                : 7.95 GiB
Duration                                 : 1 h 38 min
Overall bit rate                         : 11.6 Mb/s
Encoded date                             : UTC 2010-01-03 15:10:49
Writing application                      : mkvmerge v2.1.0 ('Another Place To Fall') built on Aug 19 2007 13:40:07
Writing library                          : libebml v0.7.7 + libmatroska v0.8.1

Video
ID                                       : 1
Format                                   : AVC
Format/Info                              : Advanced Video Codec
Format profile                           : High@L4.1
Format settings, CABAC                   : Yes
Format settings, ReFrames                : 8 frames
Codec ID                                 : V_MPEG4/ISO/AVC
Duration                                 : 1 h 38 min
Bit rate                                 : 10.1 Mb/s
Width                                    : 1 280 pixels
Height                                   : 544 pixels
Display aspect ratio                     : 2.35:1
Frame rate mode                          : Constant
Frame rate                               : 23.976 FPS
Color space                              : YUV
Chroma subsampling                       : 4:2:0
Bit depth                                : 8 bits
Scan type                                : Progressive
Bits/(Pixel*Frame)                       : 0.603
Stream size                              : 6.75 GiB (85%)
Writing library                          : x264 core 80 r1376 3feaec2
Encoding settings                        : cabac=1 / ref=8 / deblock=1:-3:-3 / analyse=0x3:0x113 / me=esa / subme=10 / psy=1 / psy_rd=1.0:0.0 / mixed_ref=1 / me_range=24 / chroma_me=1 / trellis=2 / 8x8dct=1 / cqm=0 / deadzone=21,11 / fast_pskip=1 / chroma_qp_offset=-2 / threads=6 / sliced_threads=0 / nr=0 / decimate=1 / mbaff=0 / constrained_intra=0 / bframes=3 / b_pyramid=0 / b_adapt=2 / b_bias=0 / direct=3 / wpredb=1 / wpredp=2 / keyint=250 / keyint_min=25 / scenecut=40 / rc_lookahead=0 / rc=2pass / mbtree=0 / bitrate=10060 / ratetol=1.0 / qcomp=0.60 / qpmin=10 / qpmax=51 / qpstep=4 / cplxblur=20.0 / qblur=0.5 / vbv_maxrate=50000 / vbv_bufsize=50000 / ip_ratio=1.40 / pb_ratio=1.30 / aq=1:1.00
Language                                 : English
Default                                  : Yes
Forced                                   : No

Audio
ID                                       : 2
Format                                   : DTS
Format/Info                              : Digital Theater Systems
Mode                                     : 16
Format settings, Endianness              : Big
Codec ID                                 : A_DTS
Duration                                 : 1 h 38 min
Bit rate mode                            : Constant
Bit rate                                 : 1 510 kb/s
Channel(s)                               : 6 channels
Channel positions                        : Front: L C R, Side: L R, LFE
Sampling rate                            : 48.0 kHz
Frame rate                               : 93.750 FPS (512 spf)
Bit depth                                : 24 bits
Compression mode                         : Lossy
Stream size                              : 1.04 GiB (13%)
Language                                 : English
Default                                  : Yes
Forced                                   : No

Download
***Hidden content cannot be quoted.***
THANKS
 

Putatzo

New Member
Registered
Jun 30, 2018
1
0
1
21
Beyonce - I Am... Yours. An Intimate Performance at Wynn Las Vegas (2009) [BluRay-720p]-HZ




Setlist:

  1. Hello
    Halo
    Irreplaceable
    Sweet Dreams (Acoustic)
    Dangerously in Love (Destiny’s Child song) (with "Sweet Love" snippet)
    If I Were a Boy (with "You Oughta Know"… more )
    Scared of Lonely
    That's Why You're Beautiful (with "The Beautiful Ones" snippet by Prince)
    Satellites
    Resentment
    Déjà Vu (with Ella Fitzgerald scatting)
    I Wanna Be Where You Are (Michael Jackson cover)
    No, No, No (Destiny’s Child song)
    Bug a Boo (Destiny’s Child song)
    Bills, Bills, Bills (Destiny’s Child song)
    Say My Name (Destiny’s Child song)
    Jumpin', Jumpin' (Destiny’s Child song)
    Independent Women Part 1 (Destiny’s Child song)
    Bootylicious (Destiny’s Child song)
    Survivor (Destiny’s Child song)
    '03 Bonnie & Clyde (JAY Z cover)
    Work It Out
    Crazy In Love
    Naughty Girl
    Get Me Bodied
    Single Ladies (Put a Ring on It)
Code:
Format                                   : Matroska
Format version                           : Version 1
File size                                : 7.95 GiB
Duration                                 : 1 h 38 min
Overall bit rate                         : 11.6 Mb/s
Encoded date                             : UTC 2010-01-03 15:10:49
Writing application                      : mkvmerge v2.1.0 ('Another Place To Fall') built on Aug 19 2007 13:40:07
Writing library                          : libebml v0.7.7 + libmatroska v0.8.1

Video
ID                                       : 1
Format                                   : AVC
Format/Info                              : Advanced Video Codec
Format profile                           : High@L4.1
Format settings, CABAC                   : Yes
Format settings, ReFrames                : 8 frames
Codec ID                                 : V_MPEG4/ISO/AVC
Duration                                 : 1 h 38 min
Bit rate                                 : 10.1 Mb/s
Width                                    : 1 280 pixels
Height                                   : 544 pixels
Display aspect ratio                     : 2.35:1
Frame rate mode                          : Constant
Frame rate                               : 23.976 FPS
Color space                              : YUV
Chroma subsampling                       : 4:2:0
Bit depth                                : 8 bits
Scan type                                : Progressive
Bits/(Pixel*Frame)                       : 0.603
Stream size                              : 6.75 GiB (85%)
Writing library                          : x264 core 80 r1376 3feaec2
Encoding settings                        : cabac=1 / ref=8 / deblock=1:-3:-3 / analyse=0x3:0x113 / me=esa / subme=10 / psy=1 / psy_rd=1.0:0.0 / mixed_ref=1 / me_range=24 / chroma_me=1 / trellis=2 / 8x8dct=1 / cqm=0 / deadzone=21,11 / fast_pskip=1 / chroma_qp_offset=-2 / threads=6 / sliced_threads=0 / nr=0 / decimate=1 / mbaff=0 / constrained_intra=0 / bframes=3 / b_pyramid=0 / b_adapt=2 / b_bias=0 / direct=3 / wpredb=1 / wpredp=2 / keyint=250 / keyint_min=25 / scenecut=40 / rc_lookahead=0 / rc=2pass / mbtree=0 / bitrate=10060 / ratetol=1.0 / qcomp=0.60 / qpmin=10 / qpmax=51 / qpstep=4 / cplxblur=20.0 / qblur=0.5 / vbv_maxrate=50000 / vbv_bufsize=50000 / ip_ratio=1.40 / pb_ratio=1.30 / aq=1:1.00
Language                                 : English
Default                                  : Yes
Forced                                   : No

Audio
ID                                       : 2
Format                                   : DTS
Format/Info                              : Digital Theater Systems
Mode                                     : 16
Format settings, Endianness              : Big
Codec ID                                 : A_DTS
Duration                                 : 1 h 38 min
Bit rate mode                            : Constant
Bit rate                                 : 1 510 kb/s
Channel(s)                               : 6 channels
Channel positions                        : Front: L C R, Side: L R, LFE
Sampling rate                            : 48.0 kHz
Frame rate                               : 93.750 FPS (512 spf)
Bit depth                                : 24 bits
Compression mode                         : Lossy
Stream size                              : 1.04 GiB (13%)
Language                                 : English
Default                                  : Yes
Forced                                   : No

Download
***Hidden content cannot be quoted.***
thank u so much
 

Lui

New Member
Registered
Jul 16, 2018
1
0
1
22
Beyonce - I Am... Yours. An Intimate Performance at Wynn Las Vegas (2009) [BluRay-720p]-HZ




Setlist:

  1. Hello
    Halo
    Irreplaceable
    Sweet Dreams (Acoustic)
    Dangerously in Love (Destiny’s Child song) (with "Sweet Love" snippet)
    If I Were a Boy (with "You Oughta Know"… more )
    Scared of Lonely
    That's Why You're Beautiful (with "The Beautiful Ones" snippet by Prince)
    Satellites
    Resentment
    Déjà Vu (with Ella Fitzgerald scatting)
    I Wanna Be Where You Are (Michael Jackson cover)
    No, No, No (Destiny’s Child song)
    Bug a Boo (Destiny’s Child song)
    Bills, Bills, Bills (Destiny’s Child song)
    Say My Name (Destiny’s Child song)
    Jumpin', Jumpin' (Destiny’s Child song)
    Independent Women Part 1 (Destiny’s Child song)
    Bootylicious (Destiny’s Child song)
    Survivor (Destiny’s Child song)
    '03 Bonnie & Clyde (JAY Z cover)
    Work It Out
    Crazy In Love
    Naughty Girl
    Get Me Bodied
    Single Ladies (Put a Ring on It)
Code:
Format                                   : Matroska
Format version                           : Version 1
File size                                : 7.95 GiB
Duration                                 : 1 h 38 min
Overall bit rate                         : 11.6 Mb/s
Encoded date                             : UTC 2010-01-03 15:10:49
Writing application                      : mkvmerge v2.1.0 ('Another Place To Fall') built on Aug 19 2007 13:40:07
Writing library                          : libebml v0.7.7 + libmatroska v0.8.1

Video
ID                                       : 1
Format                                   : AVC
Format/Info                              : Advanced Video Codec
Format profile                           : High@L4.1
Format settings, CABAC                   : Yes
Format settings, ReFrames                : 8 frames
Codec ID                                 : V_MPEG4/ISO/AVC
Duration                                 : 1 h 38 min
Bit rate                                 : 10.1 Mb/s
Width                                    : 1 280 pixels
Height                                   : 544 pixels
Display aspect ratio                     : 2.35:1
Frame rate mode                          : Constant
Frame rate                               : 23.976 FPS
Color space                              : YUV
Chroma subsampling                       : 4:2:0
Bit depth                                : 8 bits
Scan type                                : Progressive
Bits/(Pixel*Frame)                       : 0.603
Stream size                              : 6.75 GiB (85%)
Writing library                          : x264 core 80 r1376 3feaec2
Encoding settings                        : cabac=1 / ref=8 / deblock=1:-3:-3 / analyse=0x3:0x113 / me=esa / subme=10 / psy=1 / psy_rd=1.0:0.0 / mixed_ref=1 / me_range=24 / chroma_me=1 / trellis=2 / 8x8dct=1 / cqm=0 / deadzone=21,11 / fast_pskip=1 / chroma_qp_offset=-2 / threads=6 / sliced_threads=0 / nr=0 / decimate=1 / mbaff=0 / constrained_intra=0 / bframes=3 / b_pyramid=0 / b_adapt=2 / b_bias=0 / direct=3 / wpredb=1 / wpredp=2 / keyint=250 / keyint_min=25 / scenecut=40 / rc_lookahead=0 / rc=2pass / mbtree=0 / bitrate=10060 / ratetol=1.0 / qcomp=0.60 / qpmin=10 / qpmax=51 / qpstep=4 / cplxblur=20.0 / qblur=0.5 / vbv_maxrate=50000 / vbv_bufsize=50000 / ip_ratio=1.40 / pb_ratio=1.30 / aq=1:1.00
Language                                 : English
Default                                  : Yes
Forced                                   : No

Audio
ID                                       : 2
Format                                   : DTS
Format/Info                              : Digital Theater Systems
Mode                                     : 16
Format settings, Endianness              : Big
Codec ID                                 : A_DTS
Duration                                 : 1 h 38 min
Bit rate mode                            : Constant
Bit rate                                 : 1 510 kb/s
Channel(s)                               : 6 channels
Channel positions                        : Front: L C R, Side: L R, LFE
Sampling rate                            : 48.0 kHz
Frame rate                               : 93.750 FPS (512 spf)
Bit depth                                : 24 bits
Compression mode                         : Lossy
Stream size                              : 1.04 GiB (13%)
Language                                 : English
Default                                  : Yes
Forced                                   : No

Download
***Hidden content cannot be quoted.***
thx!
 

yoncequality

New Member
Registered
Nov 5, 2018
1
0
1
21
Beyonce - I Am... Yours. An Intimate Performance at Wynn Las Vegas (2009) [BluRay-720p]-HZ




Setlist:

  1. Hello
    Halo
    Irreplaceable
    Sweet Dreams (Acoustic)
    Dangerously in Love (Destiny’s Child song) (with "Sweet Love" snippet)
    If I Were a Boy (with "You Oughta Know"… more )
    Scared of Lonely
    That's Why You're Beautiful (with "The Beautiful Ones" snippet by Prince)
    Satellites
    Resentment
    Déjà Vu (with Ella Fitzgerald scatting)
    I Wanna Be Where You Are (Michael Jackson cover)
    No, No, No (Destiny’s Child song)
    Bug a Boo (Destiny’s Child song)
    Bills, Bills, Bills (Destiny’s Child song)
    Say My Name (Destiny’s Child song)
    Jumpin', Jumpin' (Destiny’s Child song)
    Independent Women Part 1 (Destiny’s Child song)
    Bootylicious (Destiny’s Child song)
    Survivor (Destiny’s Child song)
    '03 Bonnie & Clyde (JAY Z cover)
    Work It Out
    Crazy In Love
    Naughty Girl
    Get Me Bodied
    Single Ladies (Put a Ring on It)
Code:
Format                                   : Matroska
Format version                           : Version 1
File size                                : 7.95 GiB
Duration                                 : 1 h 38 min
Overall bit rate                         : 11.6 Mb/s
Encoded date                             : UTC 2010-01-03 15:10:49
Writing application                      : mkvmerge v2.1.0 ('Another Place To Fall') built on Aug 19 2007 13:40:07
Writing library                          : libebml v0.7.7 + libmatroska v0.8.1

Video
ID                                       : 1
Format                                   : AVC
Format/Info                              : Advanced Video Codec
Format profile                           : High@L4.1
Format settings, CABAC                   : Yes
Format settings, ReFrames                : 8 frames
Codec ID                                 : V_MPEG4/ISO/AVC
Duration                                 : 1 h 38 min
Bit rate                                 : 10.1 Mb/s
Width                                    : 1 280 pixels
Height                                   : 544 pixels
Display aspect ratio                     : 2.35:1
Frame rate mode                          : Constant
Frame rate                               : 23.976 FPS
Color space                              : YUV
Chroma subsampling                       : 4:2:0
Bit depth                                : 8 bits
Scan type                                : Progressive
Bits/(Pixel*Frame)                       : 0.603
Stream size                              : 6.75 GiB (85%)
Writing library                          : x264 core 80 r1376 3feaec2
Encoding settings                        : cabac=1 / ref=8 / deblock=1:-3:-3 / analyse=0x3:0x113 / me=esa / subme=10 / psy=1 / psy_rd=1.0:0.0 / mixed_ref=1 / me_range=24 / chroma_me=1 / trellis=2 / 8x8dct=1 / cqm=0 / deadzone=21,11 / fast_pskip=1 / chroma_qp_offset=-2 / threads=6 / sliced_threads=0 / nr=0 / decimate=1 / mbaff=0 / constrained_intra=0 / bframes=3 / b_pyramid=0 / b_adapt=2 / b_bias=0 / direct=3 / wpredb=1 / wpredp=2 / keyint=250 / keyint_min=25 / scenecut=40 / rc_lookahead=0 / rc=2pass / mbtree=0 / bitrate=10060 / ratetol=1.0 / qcomp=0.60 / qpmin=10 / qpmax=51 / qpstep=4 / cplxblur=20.0 / qblur=0.5 / vbv_maxrate=50000 / vbv_bufsize=50000 / ip_ratio=1.40 / pb_ratio=1.30 / aq=1:1.00
Language                                 : English
Default                                  : Yes
Forced                                   : No

Audio
ID                                       : 2
Format                                   : DTS
Format/Info                              : Digital Theater Systems
Mode                                     : 16
Format settings, Endianness              : Big
Codec ID                                 : A_DTS
Duration                                 : 1 h 38 min
Bit rate mode                            : Constant
Bit rate                                 : 1 510 kb/s
Channel(s)                               : 6 channels
Channel positions                        : Front: L C R, Side: L R, LFE
Sampling rate                            : 48.0 kHz
Frame rate                               : 93.750 FPS (512 spf)
Bit depth                                : 24 bits
Compression mode                         : Lossy
Stream size                              : 1.04 GiB (13%)
Language                                 : English
Default                                  : Yes
Forced                                   : No

Download
***Hidden content cannot be quoted.***
nendndnc
 

Yonce84

New Member
Registered
Dec 15, 2018
1
0
1
54
Beyonce - I Am... Yours. An Intimate Performance at Wynn Las Vegas (2009) [BluRay-720p]-HZ




Setlist:

  1. Hello
    Halo
    Irreplaceable
    Sweet Dreams (Acoustic)
    Dangerously in Love (Destiny’s Child song) (with "Sweet Love" snippet)
    If I Were a Boy (with "You Oughta Know"… more )
    Scared of Lonely
    That's Why You're Beautiful (with "The Beautiful Ones" snippet by Prince)
    Satellites
    Resentment
    Déjà Vu (with Ella Fitzgerald scatting)
    I Wanna Be Where You Are (Michael Jackson cover)
    No, No, No (Destiny’s Child song)
    Bug a Boo (Destiny’s Child song)
    Bills, Bills, Bills (Destiny’s Child song)
    Say My Name (Destiny’s Child song)
    Jumpin', Jumpin' (Destiny’s Child song)
    Independent Women Part 1 (Destiny’s Child song)
    Bootylicious (Destiny’s Child song)
    Survivor (Destiny’s Child song)
    '03 Bonnie & Clyde (JAY Z cover)
    Work It Out
    Crazy In Love
    Naughty Girl
    Get Me Bodied
    Single Ladies (Put a Ring on It)
Code:
Format                                   : Matroska
Format version                           : Version 1
File size                                : 7.95 GiB
Duration                                 : 1 h 38 min
Overall bit rate                         : 11.6 Mb/s
Encoded date                             : UTC 2010-01-03 15:10:49
Writing application                      : mkvmerge v2.1.0 ('Another Place To Fall') built on Aug 19 2007 13:40:07
Writing library                          : libebml v0.7.7 + libmatroska v0.8.1

Video
ID                                       : 1
Format                                   : AVC
Format/Info                              : Advanced Video Codec
Format profile                           : High@L4.1
Format settings, CABAC                   : Yes
Format settings, ReFrames                : 8 frames
Codec ID                                 : V_MPEG4/ISO/AVC
Duration                                 : 1 h 38 min
Bit rate                                 : 10.1 Mb/s
Width                                    : 1 280 pixels
Height                                   : 544 pixels
Display aspect ratio                     : 2.35:1
Frame rate mode                          : Constant
Frame rate                               : 23.976 FPS
Color space                              : YUV
Chroma subsampling                       : 4:2:0
Bit depth                                : 8 bits
Scan type                                : Progressive
Bits/(Pixel*Frame)                       : 0.603
Stream size                              : 6.75 GiB (85%)
Writing library                          : x264 core 80 r1376 3feaec2
Encoding settings                        : cabac=1 / ref=8 / deblock=1:-3:-3 / analyse=0x3:0x113 / me=esa / subme=10 / psy=1 / psy_rd=1.0:0.0 / mixed_ref=1 / me_range=24 / chroma_me=1 / trellis=2 / 8x8dct=1 / cqm=0 / deadzone=21,11 / fast_pskip=1 / chroma_qp_offset=-2 / threads=6 / sliced_threads=0 / nr=0 / decimate=1 / mbaff=0 / constrained_intra=0 / bframes=3 / b_pyramid=0 / b_adapt=2 / b_bias=0 / direct=3 / wpredb=1 / wpredp=2 / keyint=250 / keyint_min=25 / scenecut=40 / rc_lookahead=0 / rc=2pass / mbtree=0 / bitrate=10060 / ratetol=1.0 / qcomp=0.60 / qpmin=10 / qpmax=51 / qpstep=4 / cplxblur=20.0 / qblur=0.5 / vbv_maxrate=50000 / vbv_bufsize=50000 / ip_ratio=1.40 / pb_ratio=1.30 / aq=1:1.00
Language                                 : English
Default                                  : Yes
Forced                                   : No

Audio
ID                                       : 2
Format                                   : DTS
Format/Info                              : Digital Theater Systems
Mode                                     : 16
Format settings, Endianness              : Big
Codec ID                                 : A_DTS
Duration                                 : 1 h 38 min
Bit rate mode                            : Constant
Bit rate                                 : 1 510 kb/s
Channel(s)                               : 6 channels
Channel positions                        : Front: L C R, Side: L R, LFE
Sampling rate                            : 48.0 kHz
Frame rate                               : 93.750 FPS (512 spf)
Bit depth                                : 24 bits
Compression mode                         : Lossy
Stream size                              : 1.04 GiB (13%)
Language                                 : English
Default                                  : Yes
Forced                                   : No

Download
***Hidden content cannot be quoted.***
 

Nick Carey

New Member
Registered
Jan 30, 2019
2
0
1
23
Beyonce - I Am... Yours. An Intimate Performance at Wynn Las Vegas (2009) [BluRay-720p]-HZ




Setlist:

  1. Hello
    Halo
    Irreplaceable
    Sweet Dreams (Acoustic)
    Dangerously in Love (Destiny’s Child song) (with "Sweet Love" snippet)
    If I Were a Boy (with "You Oughta Know"… more )
    Scared of Lonely
    That's Why You're Beautiful (with "The Beautiful Ones" snippet by Prince)
    Satellites
    Resentment
    Déjà Vu (with Ella Fitzgerald scatting)
    I Wanna Be Where You Are (Michael Jackson cover)
    No, No, No (Destiny’s Child song)
    Bug a Boo (Destiny’s Child song)
    Bills, Bills, Bills (Destiny’s Child song)
    Say My Name (Destiny’s Child song)
    Jumpin', Jumpin' (Destiny’s Child song)
    Independent Women Part 1 (Destiny’s Child song)
    Bootylicious (Destiny’s Child song)
    Survivor (Destiny’s Child song)
    '03 Bonnie & Clyde (JAY Z cover)
    Work It Out
    Crazy In Love
    Naughty Girl
    Get Me Bodied
    Single Ladies (Put a Ring on It)
Code:
Format                                   : Matroska
Format version                           : Version 1
File size                                : 7.95 GiB
Duration                                 : 1 h 38 min
Overall bit rate                         : 11.6 Mb/s
Encoded date                             : UTC 2010-01-03 15:10:49
Writing application                      : mkvmerge v2.1.0 ('Another Place To Fall') built on Aug 19 2007 13:40:07
Writing library                          : libebml v0.7.7 + libmatroska v0.8.1

Video
ID                                       : 1
Format                                   : AVC
Format/Info                              : Advanced Video Codec
Format profile                           : High@L4.1
Format settings, CABAC                   : Yes
Format settings, ReFrames                : 8 frames
Codec ID                                 : V_MPEG4/ISO/AVC
Duration                                 : 1 h 38 min
Bit rate                                 : 10.1 Mb/s
Width                                    : 1 280 pixels
Height                                   : 544 pixels
Display aspect ratio                     : 2.35:1
Frame rate mode                          : Constant
Frame rate                               : 23.976 FPS
Color space                              : YUV
Chroma subsampling                       : 4:2:0
Bit depth                                : 8 bits
Scan type                                : Progressive
Bits/(Pixel*Frame)                       : 0.603
Stream size                              : 6.75 GiB (85%)
Writing library                          : x264 core 80 r1376 3feaec2
Encoding settings                        : cabac=1 / ref=8 / deblock=1:-3:-3 / analyse=0x3:0x113 / me=esa / subme=10 / psy=1 / psy_rd=1.0:0.0 / mixed_ref=1 / me_range=24 / chroma_me=1 / trellis=2 / 8x8dct=1 / cqm=0 / deadzone=21,11 / fast_pskip=1 / chroma_qp_offset=-2 / threads=6 / sliced_threads=0 / nr=0 / decimate=1 / mbaff=0 / constrained_intra=0 / bframes=3 / b_pyramid=0 / b_adapt=2 / b_bias=0 / direct=3 / wpredb=1 / wpredp=2 / keyint=250 / keyint_min=25 / scenecut=40 / rc_lookahead=0 / rc=2pass / mbtree=0 / bitrate=10060 / ratetol=1.0 / qcomp=0.60 / qpmin=10 / qpmax=51 / qpstep=4 / cplxblur=20.0 / qblur=0.5 / vbv_maxrate=50000 / vbv_bufsize=50000 / ip_ratio=1.40 / pb_ratio=1.30 / aq=1:1.00
Language                                 : English
Default                                  : Yes
Forced                                   : No

Audio
ID                                       : 2
Format                                   : DTS
Format/Info                              : Digital Theater Systems
Mode                                     : 16
Format settings, Endianness              : Big
Codec ID                                 : A_DTS
Duration                                 : 1 h 38 min
Bit rate mode                            : Constant
Bit rate                                 : 1 510 kb/s
Channel(s)                               : 6 channels
Channel positions                        : Front: L C R, Side: L R, LFE
Sampling rate                            : 48.0 kHz
Frame rate                               : 93.750 FPS (512 spf)
Bit depth                                : 24 bits
Compression mode                         : Lossy
Stream size                              : 1.04 GiB (13%)
Language                                 : English
Default                                  : Yes
Forced                                   : No

Download
***Hidden content cannot be quoted.***
 

hansfirdaus17

New Member
Registered
Apr 4, 2019
1
0
1
21
Beyonce - I Am... Yours. An Intimate Performance at Wynn Las Vegas (2009) [BluRay-720p]-HZ




Setlist:

  1. Hello
    Halo
    Irreplaceable
    Sweet Dreams (Acoustic)
    Dangerously in Love (Destiny’s Child song) (with "Sweet Love" snippet)
    If I Were a Boy (with "You Oughta Know"… more )
    Scared of Lonely
    That's Why You're Beautiful (with "The Beautiful Ones" snippet by Prince)
    Satellites
    Resentment
    Déjà Vu (with Ella Fitzgerald scatting)
    I Wanna Be Where You Are (Michael Jackson cover)
    No, No, No (Destiny’s Child song)
    Bug a Boo (Destiny’s Child song)
    Bills, Bills, Bills (Destiny’s Child song)
    Say My Name (Destiny’s Child song)
    Jumpin', Jumpin' (Destiny’s Child song)
    Independent Women Part 1 (Destiny’s Child song)
    Bootylicious (Destiny’s Child song)
    Survivor (Destiny’s Child song)
    '03 Bonnie & Clyde (JAY Z cover)
    Work It Out
    Crazy In Love
    Naughty Girl
    Get Me Bodied
    Single Ladies (Put a Ring on It)
Code:
Format                                   : Matroska
Format version                           : Version 1
File size                                : 7.95 GiB
Duration                                 : 1 h 38 min
Overall bit rate                         : 11.6 Mb/s
Encoded date                             : UTC 2010-01-03 15:10:49
Writing application                      : mkvmerge v2.1.0 ('Another Place To Fall') built on Aug 19 2007 13:40:07
Writing library                          : libebml v0.7.7 + libmatroska v0.8.1

Video
ID                                       : 1
Format                                   : AVC
Format/Info                              : Advanced Video Codec
Format profile                           : High@L4.1
Format settings, CABAC                   : Yes
Format settings, ReFrames                : 8 frames
Codec ID                                 : V_MPEG4/ISO/AVC
Duration                                 : 1 h 38 min
Bit rate                                 : 10.1 Mb/s
Width                                    : 1 280 pixels
Height                                   : 544 pixels
Display aspect ratio                     : 2.35:1
Frame rate mode                          : Constant
Frame rate                               : 23.976 FPS
Color space                              : YUV
Chroma subsampling                       : 4:2:0
Bit depth                                : 8 bits
Scan type                                : Progressive
Bits/(Pixel*Frame)                       : 0.603
Stream size                              : 6.75 GiB (85%)
Writing library                          : x264 core 80 r1376 3feaec2
Encoding settings                        : cabac=1 / ref=8 / deblock=1:-3:-3 / analyse=0x3:0x113 / me=esa / subme=10 / psy=1 / psy_rd=1.0:0.0 / mixed_ref=1 / me_range=24 / chroma_me=1 / trellis=2 / 8x8dct=1 / cqm=0 / deadzone=21,11 / fast_pskip=1 / chroma_qp_offset=-2 / threads=6 / sliced_threads=0 / nr=0 / decimate=1 / mbaff=0 / constrained_intra=0 / bframes=3 / b_pyramid=0 / b_adapt=2 / b_bias=0 / direct=3 / wpredb=1 / wpredp=2 / keyint=250 / keyint_min=25 / scenecut=40 / rc_lookahead=0 / rc=2pass / mbtree=0 / bitrate=10060 / ratetol=1.0 / qcomp=0.60 / qpmin=10 / qpmax=51 / qpstep=4 / cplxblur=20.0 / qblur=0.5 / vbv_maxrate=50000 / vbv_bufsize=50000 / ip_ratio=1.40 / pb_ratio=1.30 / aq=1:1.00
Language                                 : English
Default                                  : Yes
Forced                                   : No

Audio
ID                                       : 2
Format                                   : DTS
Format/Info                              : Digital Theater Systems
Mode                                     : 16
Format settings, Endianness              : Big
Codec ID                                 : A_DTS
Duration                                 : 1 h 38 min
Bit rate mode                            : Constant
Bit rate                                 : 1 510 kb/s
Channel(s)                               : 6 channels
Channel positions                        : Front: L C R, Side: L R, LFE
Sampling rate                            : 48.0 kHz
Frame rate                               : 93.750 FPS (512 spf)
Bit depth                                : 24 bits
Compression mode                         : Lossy
Stream size                              : 1.04 GiB (13%)
Language                                 : English
Default                                  : Yes
Forced                                   : No

Download
***Hidden content cannot be quoted.***
Thank you so muchh i need this <3
 

Herdi

New Member
Registered
May 6, 2019
24
0
1
24
Beyonce - I Am... Yours. An Intimate Performance at Wynn Las Vegas (2009) [BluRay-720p]-HZ




Setlist:

  1. Hello
    Halo
    Irreplaceable
    Sweet Dreams (Acoustic)
    Dangerously in Love (Destiny’s Child song) (with "Sweet Love" snippet)
    If I Were a Boy (with "You Oughta Know"… more )
    Scared of Lonely
    That's Why You're Beautiful (with "The Beautiful Ones" snippet by Prince)
    Satellites
    Resentment
    Déjà Vu (with Ella Fitzgerald scatting)
    I Wanna Be Where You Are (Michael Jackson cover)
    No, No, No (Destiny’s Child song)
    Bug a Boo (Destiny’s Child song)
    Bills, Bills, Bills (Destiny’s Child song)
    Say My Name (Destiny’s Child song)
    Jumpin', Jumpin' (Destiny’s Child song)
    Independent Women Part 1 (Destiny’s Child song)
    Bootylicious (Destiny’s Child song)
    Survivor (Destiny’s Child song)
    '03 Bonnie & Clyde (JAY Z cover)
    Work It Out
    Crazy In Love
    Naughty Girl
    Get Me Bodied
    Single Ladies (Put a Ring on It)
Code:
Format                                   : Matroska
Format version                           : Version 1
File size                                : 7.95 GiB
Duration                                 : 1 h 38 min
Overall bit rate                         : 11.6 Mb/s
Encoded date                             : UTC 2010-01-03 15:10:49
Writing application                      : mkvmerge v2.1.0 ('Another Place To Fall') built on Aug 19 2007 13:40:07
Writing library                          : libebml v0.7.7 + libmatroska v0.8.1

Video
ID                                       : 1
Format                                   : AVC
Format/Info                              : Advanced Video Codec
Format profile                           : High@L4.1
Format settings, CABAC                   : Yes
Format settings, ReFrames                : 8 frames
Codec ID                                 : V_MPEG4/ISO/AVC
Duration                                 : 1 h 38 min
Bit rate                                 : 10.1 Mb/s
Width                                    : 1 280 pixels
Height                                   : 544 pixels
Display aspect ratio                     : 2.35:1
Frame rate mode                          : Constant
Frame rate                               : 23.976 FPS
Color space                              : YUV
Chroma subsampling                       : 4:2:0
Bit depth                                : 8 bits
Scan type                                : Progressive
Bits/(Pixel*Frame)                       : 0.603
Stream size                              : 6.75 GiB (85%)
Writing library                          : x264 core 80 r1376 3feaec2
Encoding settings                        : cabac=1 / ref=8 / deblock=1:-3:-3 / analyse=0x3:0x113 / me=esa / subme=10 / psy=1 / psy_rd=1.0:0.0 / mixed_ref=1 / me_range=24 / chroma_me=1 / trellis=2 / 8x8dct=1 / cqm=0 / deadzone=21,11 / fast_pskip=1 / chroma_qp_offset=-2 / threads=6 / sliced_threads=0 / nr=0 / decimate=1 / mbaff=0 / constrained_intra=0 / bframes=3 / b_pyramid=0 / b_adapt=2 / b_bias=0 / direct=3 / wpredb=1 / wpredp=2 / keyint=250 / keyint_min=25 / scenecut=40 / rc_lookahead=0 / rc=2pass / mbtree=0 / bitrate=10060 / ratetol=1.0 / qcomp=0.60 / qpmin=10 / qpmax=51 / qpstep=4 / cplxblur=20.0 / qblur=0.5 / vbv_maxrate=50000 / vbv_bufsize=50000 / ip_ratio=1.40 / pb_ratio=1.30 / aq=1:1.00
Language                                 : English
Default                                  : Yes
Forced                                   : No

Audio
ID                                       : 2
Format                                   : DTS
Format/Info                              : Digital Theater Systems
Mode                                     : 16
Format settings, Endianness              : Big
Codec ID                                 : A_DTS
Duration                                 : 1 h 38 min
Bit rate mode                            : Constant
Bit rate                                 : 1 510 kb/s
Channel(s)                               : 6 channels
Channel positions                        : Front: L C R, Side: L R, LFE
Sampling rate                            : 48.0 kHz
Frame rate                               : 93.750 FPS (512 spf)
Bit depth                                : 24 bits
Compression mode                         : Lossy
Stream size                              : 1.04 GiB (13%)
Language                                 : English
Default                                  : Yes
Forced                                   : No

Download
***Hidden content cannot be quoted.***
thank you