1. If this is your first visit, be sure to check out the FAQ by clicking the link above. You may have to register before you can access the full forum. Follow the link above to Register. To start viewing messages, select the forum that you want to visit from the selection below.
    Dismiss Notice

FEED Beyonce - Super Bowl XLVII Halftime Show (FEED-1080i-HDTV)-CtrlHD

Discussion in 'Live Performances & Concerts' started by NCURBAN, Jun 20, 2016.

  1. NCURBAN

    NCURBAN Well-Known Member Administrative

    Joined:
    May 25, 2016
    Messages:
    2,720
    Likes Received:
    959
    Trophy Points:
    113
    Beyonce - Super Bowl XLVII Halftime Show (FEED-1080i-HDTV)-CtrlHD

    [​IMG]
    Setlist:
    1. Run the World (Girls) (Instrumental Intro)
    2. Love on Top (Snippet)
    3. Crazy in Love
    4. End of Time
    5. Baby Boy
    6. Ring the Alarm (Transition)
    7. Bootylicious (Destiny’s Child song) (with Kelly Rowland and Michelle Williams)
    8. Independent Women Part 1 (Destiny’s Child song) (with Kelly Rowland and Michelle Williams)
    9. Single Ladies (Put a Ring on It) (with Kelly Rowland and Michelle Williams)
    10. Halo
    Code:
    Format                                   : MPEG-TS
    File size                                : 7.61 GiB
    Duration                                 : 13mn 21s
    Overall bit rate mode                    : Variable
    Overall bit rate                         : 81.6 Mbps
    Maximum Overall bit rate                 : 35.5 Mbps
    
    Video
    ID                                       : 4113 (0x1011)
    Menu ID                                  : 1 (0x1)
    Format                                   : MPEG Video
    Format version                           : Version 2
    Format profile                           : 4:2:2@High
    Format settings, BVOP                    : Yes
    Format settings, Matrix                  : Custom
    Format settings, GOP                     : M=3, N=12
    Format settings, picture structure       : Frame
    Codec ID                                 : 2
    Duration                                 : 13mn 21s
    Bit rate mode                            : Variable
    Maximum bit rate                         : 75.4 Mbps
    Width                                    : 1 920 pixels
    Height                                   : 1 080 pixels
    Display aspect ratio                     : 16:9
    Frame rate                               : 29.970 fps
    Standard                                 : Component
    Color space                              : YUV
    Chroma subsampling                       : 4:2:2
    Bit depth                                : 8 bits
    Scan type                                : Interlaced
    Scan order                               : Top Field First
    Compression mode                         : Lossy
    Time code of first frame                 : 00:00:05;29
    Time code source                         : Group of pictures header
    GOP, Open/Closed                         : Open
    Color primaries                          : BT.709
    Transfer characteristics                 : BT.709
    Matrix coefficients                      : BT.709
    
    Audio #1
    ID                                       : 4352 (0x1100)
    Menu ID                                  : 1 (0x1)
    Format                                   : DTS
    Format/Info                              : Digital Theater Systems
    Format profile                           : MA / Core
    Mode                                     : 16
    Format settings, Endianness              : Big
    Muxing mode                              : Stream extension
    Codec ID                                 : 134
    Duration                                 : 13mn 21s
    Bit rate mode                            : Variable
    Bit rate                                 : Unknown / 1 509 Kbps
    Channel(s)                               : 6 channels
    Channel positions                        : Front: L C R, Side: L R, LFE
    Sampling rate                            : 48.0 KHz
    Bit depth                                : 24 bits
    Compression mode                         : Lossless / Lossy
    Delay relative to video                  : 233ms
    Language                                 : English
    
    Audio #2
    ID                                       : 4353 (0x1101)
    Menu ID                                  : 1 (0x1)
    Format                                   : MPEG Audio
    Format version                           : Version 1
    Format profile                           : Layer 2
    Codec ID                                 : 4
    Duration                                 : 13mn 21s
    Bit rate mode                            : Constant
    Bit rate                                 : 256 Kbps
    Channel(s)                               : 2 channels
    Sampling rate                            : 48.0 KHz
    Compression mode                         : Lossy
    Delay relative to video                  : 233ms
    Stream size                              : 24.4 MiB (0%)
    Language                                 : English

    Download
    Hidden Content:
    You must reply before you can see the hidden data contained here.
     
  2. Loading...


  3. Steven

    Steven New Member Registered

    Joined:
    Dec 4, 2017
    Messages:
    2
    Likes Received:
    0
    Trophy Points:
    1
    thank you
     
  4. dl874500

    dl874500 New Member Registered

    Joined:
    Dec 16, 2017
    Messages:
    17
    Likes Received:
    0
    Trophy Points:
    1
    thanks...
     
  5. Nayy

    Nayy New Member Registered

    Joined:
    Jan 12, 2018
    Messages:
    6
    Likes Received:
    0
    Trophy Points:
    1
    Thanks
     
  6. djili67

    djili67 New Member Registered

    Joined:
    May 1, 2018
    Messages:
    12
    Likes Received:
    0
    Trophy Points:
    1
    Thank you so much
     
  7. Natt

    Natt Member Registered

    Joined:
    Jun 11, 2018
    Messages:
    56
    Likes Received:
    0
    Trophy Points:
    6
    Thanks
     
  8. Beyoncé

    Beyoncé New Member Registered

    Joined:
    Jul 12, 2018
    Messages:
    3
    Likes Received:
    0
    Trophy Points:
    1
    thanks
     
  9. gaiae

    gaiae New Member Registered

    Joined:
    Oct 23, 2018
    Messages:
    19
    Likes Received:
    0
    Trophy Points:
    1
    great thx!
     
  10. KDHN

    KDHN New Member Registered

    Joined:
    Dec 1, 2018
    Messages:
    12
    Likes Received:
    0
    Trophy Points:
    1
    oh hell yes ive been looking for this forever
     
  11. beer_b_1

    beer_b_1 New Member Registered

    Joined:
    Jan 20, 2019
    Messages:
    4
    Likes Received:
    0
    Trophy Points:
    1
    Thank you <333
     
  12. lazyboyzzz

    lazyboyzzz New Member Registered

    Joined:
    Jan 21, 2019
    Messages:
    2
    Likes Received:
    0
    Trophy Points:
    1
    Thank you
     
  13. Angelo Vilar

    Angelo Vilar New Member Registered

    Joined:
    Feb 12, 2019
    Messages:
    1
    Likes Received:
    0
    Trophy Points:
    1
    Thanxxxxxxxxxxxxxx












    QUOTE="NCURBAN, post: 39, member: 1"]
    Beyonce - Super Bowl XLVII Halftime Show (FEED-1080i-HDTV)-CtrlHD

    [​IMG]
    Setlist:

    1. Run the World (Girls) (Instrumental Intro)
      Love on Top (Snippet)
      Crazy in Love
      End of Time
      Baby Boy
      Ring the Alarm (Transition)
      Bootylicious (Destiny’s Child song) (with Kelly Rowland and Michelle Williams)
      Independent Women Part 1 (Destiny’s Child song) (with Kelly Rowland and Michelle Williams)
      Single Ladies (Put a Ring on It) (with Kelly Rowland and Michelle Williams)
      Halo
    Code:
    Format                                   : MPEG-TS
    File size                                : 7.61 GiB
    Duration                                 : 13mn 21s
    Overall bit rate mode                    : Variable
    Overall bit rate                         : 81.6 Mbps
    Maximum Overall bit rate                 : 35.5 Mbps
    
    Video
    ID                                       : 4113 (0x1011)
    Menu ID                                  : 1 (0x1)
    Format                                   : MPEG Video
    Format version                           : Version 2
    Format profile                           : 4:2:2@High
    Format settings, BVOP                    : Yes
    Format settings, Matrix                  : Custom
    Format settings, GOP                     : M=3, N=12
    Format settings, picture structure       : Frame
    Codec ID                                 : 2
    Duration                                 : 13mn 21s
    Bit rate mode                            : Variable
    Maximum bit rate                         : 75.4 Mbps
    Width                                    : 1 920 pixels
    Height                                   : 1 080 pixels
    Display aspect ratio                     : 16:9
    Frame rate                               : 29.970 fps
    Standard                                 : Component
    Color space                              : YUV
    Chroma subsampling                       : 4:2:2
    Bit depth                                : 8 bits
    Scan type                                : Interlaced
    Scan order                               : Top Field First
    Compression mode                         : Lossy
    Time code of first frame                 : 00:00:05;29
    Time code source                         : Group of pictures header
    GOP, Open/Closed                         : Open
    Color primaries                          : BT.709
    Transfer characteristics                 : BT.709
    Matrix coefficients                      : BT.709
    
    Audio #1
    ID                                       : 4352 (0x1100)
    Menu ID                                  : 1 (0x1)
    Format                                   : DTS
    Format/Info                              : Digital Theater Systems
    Format profile                           : MA / Core
    Mode                                     : 16
    Format settings, Endianness              : Big
    Muxing mode                              : Stream extension
    Codec ID                                 : 134
    Duration                                 : 13mn 21s
    Bit rate mode                            : Variable
    Bit rate                                 : Unknown / 1 509 Kbps
    Channel(s)                               : 6 channels
    Channel positions                        : Front: L C R, Side: L R, LFE
    Sampling rate                            : 48.0 KHz
    Bit depth                                : 24 bits
    Compression mode                         : Lossless / Lossy
    Delay relative to video                  : 233ms
    Language                                 : English
    
    Audio #2
    ID                                       : 4353 (0x1101)
    Menu ID                                  : 1 (0x1)
    Format                                   : MPEG Audio
    Format version                           : Version 1
    Format profile                           : Layer 2
    Codec ID                                 : 4
    Duration                                 : 13mn 21s
    Bit rate mode                            : Constant
    Bit rate                                 : 256 Kbps
    Channel(s)                               : 2 channels
    Sampling rate                            : 48.0 KHz
    Compression mode                         : Lossy
    Delay relative to video                  : 233ms
    Stream size                              : 24.4 MiB (0%)
    Language                                 : English

    Download
    ***Hidden content cannot be quoted.***[/QUOTE]
     
  14. wesley

    wesley New Member Registered

    Joined:
    Jan 16, 2019
    Messages:
    3
    Likes Received:
    0
    Trophy Points:
    1
    Thanks!!!!!!!!!!!!!!!!!!!!!!!!!!!!!!!!!!!!!!!!!!!!!!
     
  15. Phill

    Phill Member Registered

    Joined:
    Mar 24, 2019
    Messages:
    41
    Likes Received:
    0
    Trophy Points:
    6
    gracias por el video
     
  16. AndreLML

    AndreLML New Member Registered

    Joined:
    Apr 20, 2019
    Messages:
    8
    Likes Received:
    0
    Trophy Points:
    1
    gracias
     
  17. emmanuelquiroga

    emmanuelquiroga New Member Registered

    Joined:
    Apr 21, 2019
    Messages:
    4
    Likes Received:
    0
    Trophy Points:
    1
    graciaaaaas estaba buscando este video en buena calidad
     
  18. WilliamCC

    WilliamCC New Member Registered

    Joined:
    May 2, 2019
    Messages:
    1
    Likes Received:
    0
    Trophy Points:
    1
    Thank U 4 Beyonce - Super Bowl XLVII Halftime Show