FEED Beyonce - Super Bowl XLVII Halftime Show (FEED-1080i-HDTV)-CtrlHD

NCURBAN

Well-Known Member
Administrative
May 25, 2016
3,347
3,885
113
Beyonce - Super Bowl XLVII Halftime Show (FEED-1080i-HDTV)-CtrlHD


Setlist:
  1. Run the World (Girls) (Instrumental Intro)
  2. Love on Top (Snippet)
  3. Crazy in Love
  4. End of Time
  5. Baby Boy
  6. Ring the Alarm (Transition)
  7. Bootylicious (Destiny’s Child song) (with Kelly Rowland and Michelle Williams)
  8. Independent Women Part 1 (Destiny’s Child song) (with Kelly Rowland and Michelle Williams)
  9. Single Ladies (Put a Ring on It) (with Kelly Rowland and Michelle Williams)
  10. Halo
Code:
Format                                   : MPEG-TS
File size                                : 7.61 GiB
Duration                                 : 13mn 21s
Overall bit rate mode                    : Variable
Overall bit rate                         : 81.6 Mbps
Maximum Overall bit rate                 : 35.5 Mbps

Video
ID                                       : 4113 (0x1011)
Menu ID                                  : 1 (0x1)
Format                                   : MPEG Video
Format version                           : Version 2
Format profile                           : 4:2:2@High
Format settings, BVOP                    : Yes
Format settings, Matrix                  : Custom
Format settings, GOP                     : M=3, N=12
Format settings, picture structure       : Frame
Codec ID                                 : 2
Duration                                 : 13mn 21s
Bit rate mode                            : Variable
Maximum bit rate                         : 75.4 Mbps
Width                                    : 1 920 pixels
Height                                   : 1 080 pixels
Display aspect ratio                     : 16:9
Frame rate                               : 29.970 fps
Standard                                 : Component
Color space                              : YUV
Chroma subsampling                       : 4:2:2
Bit depth                                : 8 bits
Scan type                                : Interlaced
Scan order                               : Top Field First
Compression mode                         : Lossy
Time code of first frame                 : 00:00:05;29
Time code source                         : Group of pictures header
GOP, Open/Closed                         : Open
Color primaries                          : BT.709
Transfer characteristics                 : BT.709
Matrix coefficients                      : BT.709

Audio #1
ID                                       : 4352 (0x1100)
Menu ID                                  : 1 (0x1)
Format                                   : DTS
Format/Info                              : Digital Theater Systems
Format profile                           : MA / Core
Mode                                     : 16
Format settings, Endianness              : Big
Muxing mode                              : Stream extension
Codec ID                                 : 134
Duration                                 : 13mn 21s
Bit rate mode                            : Variable
Bit rate                                 : Unknown / 1 509 Kbps
Channel(s)                               : 6 channels
Channel positions                        : Front: L C R, Side: L R, LFE
Sampling rate                            : 48.0 KHz
Bit depth                                : 24 bits
Compression mode                         : Lossless / Lossy
Delay relative to video                  : 233ms
Language                                 : English

Audio #2
ID                                       : 4353 (0x1101)
Menu ID                                  : 1 (0x1)
Format                                   : MPEG Audio
Format version                           : Version 1
Format profile                           : Layer 2
Codec ID                                 : 4
Duration                                 : 13mn 21s
Bit rate mode                            : Constant
Bit rate                                 : 256 Kbps
Channel(s)                               : 2 channels
Sampling rate                            : 48.0 KHz
Compression mode                         : Lossy
Delay relative to video                  : 233ms
Stream size                              : 24.4 MiB (0%)
Language                                 : English

Download
[HIDE-REPLY]MEGA[/HIDE-REPLY]
 

KDHN

New Member
Registered
Dec 1, 2018
12
0
1
39
Beyonce - Super Bowl XLVII Halftime Show (FEED-1080i-HDTV)-CtrlHD


Setlist:

  1. Run the World (Girls) (Instrumental Intro)
    Love on Top (Snippet)
    Crazy in Love
    End of Time
    Baby Boy
    Ring the Alarm (Transition)
    Bootylicious (Destiny’s Child song) (with Kelly Rowland and Michelle Williams)
    Independent Women Part 1 (Destiny’s Child song) (with Kelly Rowland and Michelle Williams)
    Single Ladies (Put a Ring on It) (with Kelly Rowland and Michelle Williams)
    Halo
Code:
Format                                   : MPEG-TS
File size                                : 7.61 GiB
Duration                                 : 13mn 21s
Overall bit rate mode                    : Variable
Overall bit rate                         : 81.6 Mbps
Maximum Overall bit rate                 : 35.5 Mbps

Video
ID                                       : 4113 (0x1011)
Menu ID                                  : 1 (0x1)
Format                                   : MPEG Video
Format version                           : Version 2
Format profile                           : 4:2:2@High
Format settings, BVOP                    : Yes
Format settings, Matrix                  : Custom
Format settings, GOP                     : M=3, N=12
Format settings, picture structure       : Frame
Codec ID                                 : 2
Duration                                 : 13mn 21s
Bit rate mode                            : Variable
Maximum bit rate                         : 75.4 Mbps
Width                                    : 1 920 pixels
Height                                   : 1 080 pixels
Display aspect ratio                     : 16:9
Frame rate                               : 29.970 fps
Standard                                 : Component
Color space                              : YUV
Chroma subsampling                       : 4:2:2
Bit depth                                : 8 bits
Scan type                                : Interlaced
Scan order                               : Top Field First
Compression mode                         : Lossy
Time code of first frame                 : 00:00:05;29
Time code source                         : Group of pictures header
GOP, Open/Closed                         : Open
Color primaries                          : BT.709
Transfer characteristics                 : BT.709
Matrix coefficients                      : BT.709

Audio #1
ID                                       : 4352 (0x1100)
Menu ID                                  : 1 (0x1)
Format                                   : DTS
Format/Info                              : Digital Theater Systems
Format profile                           : MA / Core
Mode                                     : 16
Format settings, Endianness              : Big
Muxing mode                              : Stream extension
Codec ID                                 : 134
Duration                                 : 13mn 21s
Bit rate mode                            : Variable
Bit rate                                 : Unknown / 1 509 Kbps
Channel(s)                               : 6 channels
Channel positions                        : Front: L C R, Side: L R, LFE
Sampling rate                            : 48.0 KHz
Bit depth                                : 24 bits
Compression mode                         : Lossless / Lossy
Delay relative to video                  : 233ms
Language                                 : English

Audio #2
ID                                       : 4353 (0x1101)
Menu ID                                  : 1 (0x1)
Format                                   : MPEG Audio
Format version                           : Version 1
Format profile                           : Layer 2
Codec ID                                 : 4
Duration                                 : 13mn 21s
Bit rate mode                            : Constant
Bit rate                                 : 256 Kbps
Channel(s)                               : 2 channels
Sampling rate                            : 48.0 KHz
Compression mode                         : Lossy
Delay relative to video                  : 233ms
Stream size                              : 24.4 MiB (0%)
Language                                 : English

Download
***Hidden content cannot be quoted.***
oh hell yes ive been looking for this forever
 

Angelo Vilar

New Member
Registered
Feb 12, 2019
1
0
1
25
Thanxxxxxxxxxxxxxx












QUOTE="NCURBAN, post: 39, member: 1"]
Beyonce - Super Bowl XLVII Halftime Show (FEED-1080i-HDTV)-CtrlHD


Setlist:

  1. Run the World (Girls) (Instrumental Intro)
    Love on Top (Snippet)
    Crazy in Love
    End of Time
    Baby Boy
    Ring the Alarm (Transition)
    Bootylicious (Destiny’s Child song) (with Kelly Rowland and Michelle Williams)
    Independent Women Part 1 (Destiny’s Child song) (with Kelly Rowland and Michelle Williams)
    Single Ladies (Put a Ring on It) (with Kelly Rowland and Michelle Williams)
    Halo
Code:
Format                                   : MPEG-TS
File size                                : 7.61 GiB
Duration                                 : 13mn 21s
Overall bit rate mode                    : Variable
Overall bit rate                         : 81.6 Mbps
Maximum Overall bit rate                 : 35.5 Mbps

Video
ID                                       : 4113 (0x1011)
Menu ID                                  : 1 (0x1)
Format                                   : MPEG Video
Format version                           : Version 2
Format profile                           : 4:2:2@High
Format settings, BVOP                    : Yes
Format settings, Matrix                  : Custom
Format settings, GOP                     : M=3, N=12
Format settings, picture structure       : Frame
Codec ID                                 : 2
Duration                                 : 13mn 21s
Bit rate mode                            : Variable
Maximum bit rate                         : 75.4 Mbps
Width                                    : 1 920 pixels
Height                                   : 1 080 pixels
Display aspect ratio                     : 16:9
Frame rate                               : 29.970 fps
Standard                                 : Component
Color space                              : YUV
Chroma subsampling                       : 4:2:2
Bit depth                                : 8 bits
Scan type                                : Interlaced
Scan order                               : Top Field First
Compression mode                         : Lossy
Time code of first frame                 : 00:00:05;29
Time code source                         : Group of pictures header
GOP, Open/Closed                         : Open
Color primaries                          : BT.709
Transfer characteristics                 : BT.709
Matrix coefficients                      : BT.709

Audio #1
ID                                       : 4352 (0x1100)
Menu ID                                  : 1 (0x1)
Format                                   : DTS
Format/Info                              : Digital Theater Systems
Format profile                           : MA / Core
Mode                                     : 16
Format settings, Endianness              : Big
Muxing mode                              : Stream extension
Codec ID                                 : 134
Duration                                 : 13mn 21s
Bit rate mode                            : Variable
Bit rate                                 : Unknown / 1 509 Kbps
Channel(s)                               : 6 channels
Channel positions                        : Front: L C R, Side: L R, LFE
Sampling rate                            : 48.0 KHz
Bit depth                                : 24 bits
Compression mode                         : Lossless / Lossy
Delay relative to video                  : 233ms
Language                                 : English

Audio #2
ID                                       : 4353 (0x1101)
Menu ID                                  : 1 (0x1)
Format                                   : MPEG Audio
Format version                           : Version 1
Format profile                           : Layer 2
Codec ID                                 : 4
Duration                                 : 13mn 21s
Bit rate mode                            : Constant
Bit rate                                 : 256 Kbps
Channel(s)                               : 2 channels
Sampling rate                            : 48.0 KHz
Compression mode                         : Lossy
Delay relative to video                  : 233ms
Stream size                              : 24.4 MiB (0%)
Language                                 : English

Download
***Hidden content cannot be quoted.***[/QUOTE]
 

AndreLML

New Member
Registered
Apr 20, 2019
17
0
1
30
Beyonce - Super Bowl XLVII Halftime Show (FEED-1080i-HDTV)-CtrlHD


Setlist:

  1. Run the World (Girls) (Instrumental Intro)
    Love on Top (Snippet)
    Crazy in Love
    End of Time
    Baby Boy
    Ring the Alarm (Transition)
    Bootylicious (Destiny’s Child song) (with Kelly Rowland and Michelle Williams)
    Independent Women Part 1 (Destiny’s Child song) (with Kelly Rowland and Michelle Williams)
    Single Ladies (Put a Ring on It) (with Kelly Rowland and Michelle Williams)
    Halo
Code:
Format                                   : MPEG-TS
File size                                : 7.61 GiB
Duration                                 : 13mn 21s
Overall bit rate mode                    : Variable
Overall bit rate                         : 81.6 Mbps
Maximum Overall bit rate                 : 35.5 Mbps

Video
ID                                       : 4113 (0x1011)
Menu ID                                  : 1 (0x1)
Format                                   : MPEG Video
Format version                           : Version 2
Format profile                           : 4:2:2@High
Format settings, BVOP                    : Yes
Format settings, Matrix                  : Custom
Format settings, GOP                     : M=3, N=12
Format settings, picture structure       : Frame
Codec ID                                 : 2
Duration                                 : 13mn 21s
Bit rate mode                            : Variable
Maximum bit rate                         : 75.4 Mbps
Width                                    : 1 920 pixels
Height                                   : 1 080 pixels
Display aspect ratio                     : 16:9
Frame rate                               : 29.970 fps
Standard                                 : Component
Color space                              : YUV
Chroma subsampling                       : 4:2:2
Bit depth                                : 8 bits
Scan type                                : Interlaced
Scan order                               : Top Field First
Compression mode                         : Lossy
Time code of first frame                 : 00:00:05;29
Time code source                         : Group of pictures header
GOP, Open/Closed                         : Open
Color primaries                          : BT.709
Transfer characteristics                 : BT.709
Matrix coefficients                      : BT.709

Audio #1
ID                                       : 4352 (0x1100)
Menu ID                                  : 1 (0x1)
Format                                   : DTS
Format/Info                              : Digital Theater Systems
Format profile                           : MA / Core
Mode                                     : 16
Format settings, Endianness              : Big
Muxing mode                              : Stream extension
Codec ID                                 : 134
Duration                                 : 13mn 21s
Bit rate mode                            : Variable
Bit rate                                 : Unknown / 1 509 Kbps
Channel(s)                               : 6 channels
Channel positions                        : Front: L C R, Side: L R, LFE
Sampling rate                            : 48.0 KHz
Bit depth                                : 24 bits
Compression mode                         : Lossless / Lossy
Delay relative to video                  : 233ms
Language                                 : English

Audio #2
ID                                       : 4353 (0x1101)
Menu ID                                  : 1 (0x1)
Format                                   : MPEG Audio
Format version                           : Version 1
Format profile                           : Layer 2
Codec ID                                 : 4
Duration                                 : 13mn 21s
Bit rate mode                            : Constant
Bit rate                                 : 256 Kbps
Channel(s)                               : 2 channels
Sampling rate                            : 48.0 KHz
Compression mode                         : Lossy
Delay relative to video                  : 233ms
Stream size                              : 24.4 MiB (0%)
Language                                 : English

Download
***Hidden content cannot be quoted.***
gracias
 

Sadsun0000

Member
Registered
Aug 1, 2019
53
0
6
32
Beyonce - Super Bowl XLVII Halftime Show (FEED-1080i-HDTV)-CtrlHD


Setlist:

  1. Run the World (Girls) (Instrumental Intro)
    Love on Top (Snippet)
    Crazy in Love
    End of Time
    Baby Boy
    Ring the Alarm (Transition)
    Bootylicious (Destiny’s Child song) (with Kelly Rowland and Michelle Williams)
    Independent Women Part 1 (Destiny’s Child song) (with Kelly Rowland and Michelle Williams)
    Single Ladies (Put a Ring on It) (with Kelly Rowland and Michelle Williams)
    Halo

Download
***Hidden content cannot be quoted.***
Thank you
 

Patrick97

New Member
Registered
Nov 2, 2019
6
0
1
23
Beyonce - Super Bowl XLVII Halftime Show (FEED-1080i-HDTV)-CtrlHD


Setlist:

  1. Run the World (Girls) (Instrumental Intro)
    Love on Top (Snippet)
    Crazy in Love
    End of Time
    Baby Boy
    Ring the Alarm (Transition)
    Bootylicious (Destiny’s Child song) (with Kelly Rowland and Michelle Williams)
    Independent Women Part 1 (Destiny’s Child song) (with Kelly Rowland and Michelle Williams)
    Single Ladies (Put a Ring on It) (with Kelly Rowland and Michelle Williams)
    Halo
Code:
Format                                   : MPEG-TS
File size                                : 7.61 GiB
Duration                                 : 13mn 21s
Overall bit rate mode                    : Variable
Overall bit rate                         : 81.6 Mbps
Maximum Overall bit rate                 : 35.5 Mbps

Video
ID                                       : 4113 (0x1011)
Menu ID                                  : 1 (0x1)
Format                                   : MPEG Video
Format version                           : Version 2
Format profile                           : 4:2:2@High
Format settings, BVOP                    : Yes
Format settings, Matrix                  : Custom
Format settings, GOP                     : M=3, N=12
Format settings, picture structure       : Frame
Codec ID                                 : 2
Duration                                 : 13mn 21s
Bit rate mode                            : Variable
Maximum bit rate                         : 75.4 Mbps
Width                                    : 1 920 pixels
Height                                   : 1 080 pixels
Display aspect ratio                     : 16:9
Frame rate                               : 29.970 fps
Standard                                 : Component
Color space                              : YUV
Chroma subsampling                       : 4:2:2
Bit depth                                : 8 bits
Scan type                                : Interlaced
Scan order                               : Top Field First
Compression mode                         : Lossy
Time code of first frame                 : 00:00:05;29
Time code source                         : Group of pictures header
GOP, Open/Closed                         : Open
Color primaries                          : BT.709
Transfer characteristics                 : BT.709
Matrix coefficients                      : BT.709

Audio #1
ID                                       : 4352 (0x1100)
Menu ID                                  : 1 (0x1)
Format                                   : DTS
Format/Info                              : Digital Theater Systems
Format profile                           : MA / Core
Mode                                     : 16
Format settings, Endianness              : Big
Muxing mode                              : Stream extension
Codec ID                                 : 134
Duration                                 : 13mn 21s
Bit rate mode                            : Variable
Bit rate                                 : Unknown / 1 509 Kbps
Channel(s)                               : 6 channels
Channel positions                        : Front: L C R, Side: L R, LFE
Sampling rate                            : 48.0 KHz
Bit depth                                : 24 bits
Compression mode                         : Lossless / Lossy
Delay relative to video                  : 233ms
Language                                 : English

Audio #2
ID                                       : 4353 (0x1101)
Menu ID                                  : 1 (0x1)
Format                                   : MPEG Audio
Format version                           : Version 1
Format profile                           : Layer 2
Codec ID                                 : 4
Duration                                 : 13mn 21s
Bit rate mode                            : Constant
Bit rate                                 : 256 Kbps
Channel(s)                               : 2 channels
Sampling rate                            : 48.0 KHz
Compression mode                         : Lossy
Delay relative to video                  : 233ms
Stream size                              : 24.4 MiB (0%)
Language                                 : English

Download
***Hidden content cannot be quoted.***
Thank you