HDTV Black Eyed Peas - I Gotta Feeling (Oprah's 24th Season Kickoff Party 2009) [HDTV-720p]

NCURBAN

Well-Known Member
Administrative
May 25, 2016
3,360
4,219
113
Black Eyed Peas - I Gotta Feeling (Oprah's 24th Season Kickoff Party 2009) [HDTV-720p]


Code:
Format                                   : MPEG-TS
File size                                : 424 MiB
Duration                                 : 6mn 7s
Overall bit rate mode                    : Variable
Overall bit rate                         : 9 661 Kbps

Video
ID                                       : 4113 (0x1011)
Menu ID                                  : 1 (0x1)
Format                                   : AVC
Format/Info                              : Advanced Video Codec
Format profile                           : Main@L4
Format settings, CABAC                   : Yes
Format settings, ReFrames                : 4 frames
Format settings, GOP                     : M=4, N=32
Codec ID                                 : 27
Duration                                 : 6mn 7s
Bit rate mode                            : Variable
Bit rate                                 : 8 796 Kbps
Maximum bit rate                         : 20.0 Mbps
Width                                    : 1 280 pixels
Height                                   : 720 pixels
Display aspect ratio                     : 16:9
Frame rate                               : 59.940 fps
Color space                              : YUV
Chroma subsampling                       : 4:2:0
Bit depth                                : 8 bits
Scan type                                : Progressive
Bits/(Pixel*Frame)                       : 0.159
Stream size                              : 385 MiB (91%)
Color range                              : Limited
Color primaries                          : BT.709
Transfer characteristics                 : BT.709
Matrix coefficients                      : BT.709

Audio
ID                                       : 4352 (0x1100)
Menu ID                                  : 1 (0x1)
Format                                   : AC-3
Format/Info                              : Audio Coding 3
Mode extension                           : CM (complete main)
Format settings, Endianness              : Big
Codec ID                                 : 129
Duration                                 : 6mn 7s
Bit rate mode                            : Constant
Bit rate                                 : 384 Kbps
Channel(s)                               : 2 channels
Channel positions                        : Front: L R
Sampling rate                            : 48.0 KHz
Compression mode                         : Lossy
Delay relative to video                  : -16ms
Stream size                              : 16.8 MiB (4%)

Download
[HIDE-REPLY]MEGA[/HIDE-REPLY]
 

Bobby Elysia

New Member
Registered
Nov 19, 2019
2
0
1
40
Black Eyed Peas - I Gotta Feeling (Oprah's 24th Season Kickoff Party 2009) [HDTV-720p]


Code:
Format                                   : MPEG-TS
File size                                : 424 MiB
Duration                                 : 6mn 7s
Overall bit rate mode                    : Variable
Overall bit rate                         : 9 661 Kbps

Video
ID                                       : 4113 (0x1011)
Menu ID                                  : 1 (0x1)
Format                                   : AVC
Format/Info                              : Advanced Video Codec
Format profile                           : Main@L4
Format settings, CABAC                   : Yes
Format settings, ReFrames                : 4 frames
Format settings, GOP                     : M=4, N=32
Codec ID                                 : 27
Duration                                 : 6mn 7s
Bit rate mode                            : Variable
Bit rate                                 : 8 796 Kbps
Maximum bit rate                         : 20.0 Mbps
Width                                    : 1 280 pixels
Height                                   : 720 pixels
Display aspect ratio                     : 16:9
Frame rate                               : 59.940 fps
Color space                              : YUV
Chroma subsampling                       : 4:2:0
Bit depth                                : 8 bits
Scan type                                : Progressive
Bits/(Pixel*Frame)                       : 0.159
Stream size                              : 385 MiB (91%)
Color range                              : Limited
Color primaries                          : BT.709
Transfer characteristics                 : BT.709
Matrix coefficients                      : BT.709

Audio
ID                                       : 4352 (0x1100)
Menu ID                                  : 1 (0x1)
Format                                   : AC-3
Format/Info                              : Audio Coding 3
Mode extension                           : CM (complete main)
Format settings, Endianness              : Big
Codec ID                                 : 129
Duration                                 : 6mn 7s
Bit rate mode                            : Constant
Bit rate                                 : 384 Kbps
Channel(s)                               : 2 channels
Channel positions                        : Front: L R
Sampling rate                            : 48.0 KHz
Compression mode                         : Lossy
Delay relative to video                  : -16ms
Stream size                              : 16.8 MiB (4%)

Download
***Hidden content cannot be quoted.***