HDTV Britney Spears - Me Against The Music (Tonight Show With Jay Leno 2003) [HDTV-1080i]

NCURBAN

Well-Known Member
Administrative
May 25, 2016
3,347
3,611
113
Britney Spears - Me Against The Music (Tonight Show With Jay Leno 200:relievedface: [HDTV-1080i]


Code:
Format                                   : MPEG-TS
File size                                : 554 MiB
Duration                                 : 4mn 10s
Overall bit rate mode                    : Variable
Overall bit rate                         : 18.5 Mbps
Movie name                               : The Tonight Show with Jay Leno
Law rating                               : TV-14

Video
ID                                       : 17 (0x11)
Menu ID                                  : 1 (0x1)
Format                                   : MPEG Video
Format version                           : Version 2
Format profile                           : Main@High
Format settings, BVOP                    : Yes
Format settings, Matrix                  : Default
Format settings, GOP                     : M=3, N=27
Format settings, picture structure       : Frame
Codec ID                                 : 2
Duration                                 : 4mn 10s
Bit rate mode                            : Variable
Bit rate                                 : 17.3 Mbps
Maximum bit rate                         : 18.2 Mbps
Width                                    : 1 920 pixels
Height                                   : 1 088 pixels
Display aspect ratio                     : 16:9
Frame rate                               : 29.970 fps
Standard                                 : NTSC
Color space                              : YUV
Chroma subsampling                       : 4:2:0
Bit depth                                : 8 bits
Scan type                                : Interlaced
Scan order                               : Top Field First
Compression mode                         : Lossy
Bits/(Pixel*Frame)                       : 0.277
Time code of first frame                 : 00:00:00;00
Time code source                         : Group of pictures header
GOP, Open/Closed                         : Open
GOP, Open/Closed of first frame          : Closed
Stream size                              : 519 MiB (94%)
Color primaries                          : BT.709
Transfer characteristics                 : BT.709
Matrix coefficients                      : BT.709

Audio
ID                                       : 20 (0x14)
Menu ID                                  : 1 (0x1)
Format                                   : AC-3
Format/Info                              : Audio Coding 3
Mode extension                           : CM (complete main)
Format settings, Endianness              : Big
Codec ID                                 : 129
Duration                                 : 4mn 10s
Bit rate mode                            : Constant
Bit rate                                 : 256 Kbps
Channel(s)                               : 2 channels
Channel positions                        : Front: L R
Sampling rate                            : 48.0 KHz
Compression mode                         : Lossy
Stream size                              : 7.65 MiB (1%)
Download
MEGA
 
  • Like
Reactions: Sadsun0000