Master Britney Spears - Someday (I Will Understand) [Master-1080p-LPCM]

NCURBAN

Well-Known Member
Administrative
May 25, 2016
3,347
3,885
113
Britney Spears - Someday (I Will Understand) [Master-1080p-LPCM]



Genres: Pop
Released: 2005​

Code:
Format                                   : MPEG-4
Format profile                           : QuickTime
Codec ID                                 : qt
File size                                : 645 MiB
Duration                                 : 3mn 50s
Overall bit rate                         : 23.4 Mbps
Writing application                      : Lavf56.15.102

Video
ID                                       : 1
Format                                   : AVC
Format/Info                              : Advanced Video Codec
Format profile                           : High 4:4:4 Predictive@L4.1
Format settings, CABAC                   : Yes
Format settings, ReFrames                : 3 frames
Codec ID                                 : avc1
Codec ID/Info                            : Advanced Video Coding
Duration                                 : 3mn 50s
Bit rate                                 : 21.9 Mbps
Width                                    : 720 pixels
Height                                   : 486 pixels
Display aspect ratio                     : 3:2
Original display aspect ratio            : 3:2
Frame rate mode                          : Variable
Frame rate                               : 23.976 fps
Minimum frame rate                       : 23.786 fps
Maximum frame rate                       : 24.415 fps
Color space                              : YUV
Chroma subsampling                       : 4:2:0
Bit depth                                : 8 bits
Scan type                                : Progressive
Bits/(Pixel*Frame)                       : 2.609
Stream size                              : 602 MiB (93%)
Writing library                          : x264 core 120 r2164 da19765
Encoding settings                        : cabac=1 / ref=3 / deblock=1:0:0 / analyse=0x3:0x113 / me=hex / subme=7 / psy=0 / mixed_ref=1 / me_range=16 / chroma_me=1 / trellis=0 / 8x8dct=1 / cqm=0 / deadzone=21,11 / fast_pskip=0 / chroma_qp_offset=0 / threads=3 / sliced_threads=0 / nr=0 / decimate=1 / interlaced=0 / bluray_compat=0 / constrained_intra=0 / bframes=0 / weightp=2 / keyint=240 / keyint_min=23 / scenecut=40 / intra_refresh=0 / rc=cqp / mbtree=0 / qp=0
Language                                 : English

Audio
ID                                       : 2
Format                                   : PCM
Format settings, Endianness              : Little
Format settings, Sign                    : Signed
Codec ID                                 : sowt
Duration                                 : 3mn 50s
Source duration                          : 3mn 50s
Bit rate mode                            : Constant
Bit rate                                 : 1 536 Kbps
Channel(s)                               : 2 channels
Channel positions                        : Front: L R
Sampling rate                            : 48.0 KHz
Bit depth                                : 16 bits
Stream size                              : 42.3 MiB (7%)
Source stream size                       : 42.2 MiB (7%)
Language                                 : English
mdhd_Duration                            : 230750

Download
[HIDE-REPLY]MEGA[/HIDE-REPLY]
 
Last edited:

Albertography

New Member
Registered
Dec 20, 2018
6
0
1
25
Almería, Spain
Britney Spears - Someday (I Will Understand) [Master-1080p-LPCM]



Genres: Pop
Released: 2005​

Code:
Format                                   : MPEG-4
Format profile                           : QuickTime
Codec ID                                 : qt
File size                                : 645 MiB
Duration                                 : 3mn 50s
Overall bit rate                         : 23.4 Mbps
Writing application                      : Lavf56.15.102

Video
ID                                       : 1
Format                                   : AVC
Format/Info                              : Advanced Video Codec
Format profile                           : High 4:4:4 Predictive@L4.1
Format settings, CABAC                   : Yes
Format settings, ReFrames                : 3 frames
Codec ID                                 : avc1
Codec ID/Info                            : Advanced Video Coding
Duration                                 : 3mn 50s
Bit rate                                 : 21.9 Mbps
Width                                    : 720 pixels
Height                                   : 486 pixels
Display aspect ratio                     : 3:2
Original display aspect ratio            : 3:2
Frame rate mode                          : Variable
Frame rate                               : 23.976 fps
Minimum frame rate                       : 23.786 fps
Maximum frame rate                       : 24.415 fps
Color space                              : YUV
Chroma subsampling                       : 4:2:0
Bit depth                                : 8 bits
Scan type                                : Progressive
Bits/(Pixel*Frame)                       : 2.609
Stream size                              : 602 MiB (93%)
Writing library                          : x264 core 120 r2164 da19765
Encoding settings                        : cabac=1 / ref=3 / deblock=1:0:0 / analyse=0x3:0x113 / me=hex / subme=7 / psy=0 / mixed_ref=1 / me_range=16 / chroma_me=1 / trellis=0 / 8x8dct=1 / cqm=0 / deadzone=21,11 / fast_pskip=0 / chroma_qp_offset=0 / threads=3 / sliced_threads=0 / nr=0 / decimate=1 / interlaced=0 / bluray_compat=0 / constrained_intra=0 / bframes=0 / weightp=2 / keyint=240 / keyint_min=23 / scenecut=40 / intra_refresh=0 / rc=cqp / mbtree=0 / qp=0
Language                                 : English

Audio
ID                                       : 2
Format                                   : PCM
Format settings, Endianness              : Little
Format settings, Sign                    : Signed
Codec ID                                 : sowt
Duration                                 : 3mn 50s
Source duration                          : 3mn 50s
Bit rate mode                            : Constant
Bit rate                                 : 1 536 Kbps
Channel(s)                               : 2 channels
Channel positions                        : Front: L R
Sampling rate                            : 48.0 KHz
Bit depth                                : 16 bits
Stream size                              : 42.3 MiB (7%)
Source stream size                       : 42.2 MiB (7%)
Language                                 : English
mdhd_Duration                            : 230750

Download
***Hidden content cannot be quoted.***
Thank you!
 

babestv

New Member
Registered
May 2, 2020
27
0
1
27
Britney Spears - Someday (I Will Understand) [Master-1080p-LPCM]



Genres: Pop
Released: 2005​

Code:
Format                                   : MPEG-4
Format profile                           : QuickTime
Codec ID                                 : qt
File size                                : 645 MiB
Duration                                 : 3mn 50s
Overall bit rate                         : 23.4 Mbps
Writing application                      : Lavf56.15.102

Video
ID                                       : 1
Format                                   : AVC
Format/Info                              : Advanced Video Codec
Format profile                           : High 4:4:4 Predictive@L4.1
Format settings, CABAC                   : Yes
Format settings, ReFrames                : 3 frames
Codec ID                                 : avc1
Codec ID/Info                            : Advanced Video Coding
Duration                                 : 3mn 50s
Bit rate                                 : 21.9 Mbps
Width                                    : 720 pixels
Height                                   : 486 pixels
Display aspect ratio                     : 3:2
Original display aspect ratio            : 3:2
Frame rate mode                          : Variable
Frame rate                               : 23.976 fps
Minimum frame rate                       : 23.786 fps
Maximum frame rate                       : 24.415 fps
Color space                              : YUV
Chroma subsampling                       : 4:2:0
Bit depth                                : 8 bits
Scan type                                : Progressive
Bits/(Pixel*Frame)                       : 2.609
Stream size                              : 602 MiB (93%)
Writing library                          : x264 core 120 r2164 da19765
Encoding settings                        : cabac=1 / ref=3 / deblock=1:0:0 / analyse=0x3:0x113 / me=hex / subme=7 / psy=0 / mixed_ref=1 / me_range=16 / chroma_me=1 / trellis=0 / 8x8dct=1 / cqm=0 / deadzone=21,11 / fast_pskip=0 / chroma_qp_offset=0 / threads=3 / sliced_threads=0 / nr=0 / decimate=1 / interlaced=0 / bluray_compat=0 / constrained_intra=0 / bframes=0 / weightp=2 / keyint=240 / keyint_min=23 / scenecut=40 / intra_refresh=0 / rc=cqp / mbtree=0 / qp=0
Language                                 : English

Audio
ID                                       : 2
Format                                   : PCM
Format settings, Endianness              : Little
Format settings, Sign                    : Signed
Codec ID                                 : sowt
Duration                                 : 3mn 50s
Source duration                          : 3mn 50s
Bit rate mode                            : Constant
Bit rate                                 : 1 536 Kbps
Channel(s)                               : 2 channels
Channel positions                        : Front: L R
Sampling rate                            : 48.0 KHz
Bit depth                                : 16 bits
Stream size                              : 42.3 MiB (7%)
Source stream size                       : 42.2 MiB (7%)
Language                                 : English
mdhd_Duration                            : 230750

Download
***Hidden content cannot be quoted.***
super