HDTV Britney Spears - Today 2016 [HDTV-1080i]

NCURBAN

Well-Known Member
Administrative
May 25, 2016
3,347
3,593
113
Britney Spears - Do You Wanna Come Over (Today 2016) [HDTV-1080i]

You must reply before you can see the hidden data contained here.
Britney Spears - Make Me... (Today 2016) [HDTV-1080i]

You must reply before you can see the hidden data contained here.
Code:
Format                                   : MPEG-PS
File size                                : 515 MiB
Duration                                 : 4mn 16s
Overall bit rate mode                    : Variable
Overall bit rate                         : 16.8 Mbps
Law rating                               : N/A

Video
ID                                       : 224 (0xE0)
Format                                   : MPEG Video
Format version                           : Version 2
Format profile                           : Main@High
Format settings, BVOP                    : Yes
Format settings, Matrix                  : Custom
Format settings, GOP                     : Variable
Format settings, picture structure       : Frame
Duration                                 : 4mn 16s
Bit rate mode                            : Variable
Bit rate                                 : 16.1 Mbps
Maximum bit rate                         : 24.0 Mbps
Width                                    : 1 920 pixels
Height                                   : 1 080 pixels
Display aspect ratio                     : 16:9
Active Format Description                : Full frame 16:9 image
Frame rate                               : 29.970 fps
Color space                              : YUV
Chroma subsampling                       : 4:2:0
Bit depth                                : 8 bits
Scan type                                : Interlaced
Scan order                               : Top Field First
Compression mode                         : Lossy
Bits/(Pixel*Frame)                       : 0.259
Time code of first frame                 : 00:00:00;00
Time code source                         : Group of pictures header
GOP, Open/Closed                         : Open
GOP, Open/Closed of first frame          : Closed
Stream size                              : 493 MiB (96%)

Audio
ID                                       : 189 (0xBD)-128 (0x80)
Format                                   : AC-3
Format/Info                              : Audio Coding 3
Mode extension                           : CM (complete main)
Format settings, Endianness              : Big
Muxing mode                              : DVD-Video
Duration                                 : 4mn 16s
Bit rate mode                            : Constant
Bit rate                                 : 384 Kbps
Channel(s)                               : 6 channels
Channel positions                        : Front: L C R, Side: L R, LFE
Sampling rate                            : 48.0 KHz
Compression mode                         : Lossy
Delay relative to video                  : 24ms
Stream size                              : 11.8 MiB (2%)
 
  • Like
Reactions: Abdulhalim

cjfx

New Member
Registered
Oct 23, 2017
6
0
1
21
Britney Spears - Do You Wanna Come Over (Today 2016) [HDTV-1080i]

***Hidden content cannot be quoted.***

Britney Spears - Make Me... (Today 2016) [HDTV-1080i]

***Hidden content cannot be quoted.***

Code:
Format                                   : MPEG-PS
File size                                : 515 MiB
Duration                                 : 4mn 16s
Overall bit rate mode                    : Variable
Overall bit rate                         : 16.8 Mbps
Law rating                               : N/A

Video
ID                                       : 224 (0xE0)
Format                                   : MPEG Video
Format version                           : Version 2
Format profile                           : Main@High
Format settings, BVOP                    : Yes
Format settings, Matrix                  : Custom
Format settings, GOP                     : Variable
Format settings, picture structure       : Frame
Duration                                 : 4mn 16s
Bit rate mode                            : Variable
Bit rate                                 : 16.1 Mbps
Maximum bit rate                         : 24.0 Mbps
Width                                    : 1 920 pixels
Height                                   : 1 080 pixels
Display aspect ratio                     : 16:9
Active Format Description                : Full frame 16:9 image
Frame rate                               : 29.970 fps
Color space                              : YUV
Chroma subsampling                       : 4:2:0
Bit depth                                : 8 bits
Scan type                                : Interlaced
Scan order                               : Top Field First
Compression mode                         : Lossy
Bits/(Pixel*Frame)                       : 0.259
Time code of first frame                 : 00:00:00;00
Time code source                         : Group of pictures header
GOP, Open/Closed                         : Open
GOP, Open/Closed of first frame          : Closed
Stream size                              : 493 MiB (96%)

Audio
ID                                       : 189 (0xBD)-128 (0x80)
Format                                   : AC-3
Format/Info                              : Audio Coding 3
Mode extension                           : CM (complete main)
Format settings, Endianness              : Big
Muxing mode                              : DVD-Video
Duration                                 : 4mn 16s
Bit rate mode                            : Constant
Bit rate                                 : 384 Kbps
Channel(s)                               : 6 channels
Channel positions                        : Front: L C R, Side: L R, LFE
Sampling rate                            : 48.0 KHz
Compression mode                         : Lossy
Delay relative to video                  : 24ms
Stream size                              : 11.8 MiB (2%)
 

Abdulhalim

New Member
Registered
Jan 25, 2018
4
0
1
39
Britney Spears - Do You Wanna Come Over (Today 2016) [HDTV-1080i]

***Hidden content cannot be quoted.***

Britney Spears - Make Me... (Today 2016) [HDTV-1080i]

***Hidden content cannot be quoted.***

Code:
Format                                   : MPEG-PS
File size                                : 515 MiB
Duration                                 : 4mn 16s
Overall bit rate mode                    : Variable
Overall bit rate                         : 16.8 Mbps
Law rating                               : N/A

Video
ID                                       : 224 (0xE0)
Format                                   : MPEG Video
Format version                           : Version 2
Format profile                           : Main@High
Format settings, BVOP                    : Yes
Format settings, Matrix                  : Custom
Format settings, GOP                     : Variable
Format settings, picture structure       : Frame
Duration                                 : 4mn 16s
Bit rate mode                            : Variable
Bit rate                                 : 16.1 Mbps
Maximum bit rate                         : 24.0 Mbps
Width                                    : 1 920 pixels
Height                                   : 1 080 pixels
Display aspect ratio                     : 16:9
Active Format Description                : Full frame 16:9 image
Frame rate                               : 29.970 fps
Color space                              : YUV
Chroma subsampling                       : 4:2:0
Bit depth                                : 8 bits
Scan type                                : Interlaced
Scan order                               : Top Field First
Compression mode                         : Lossy
Bits/(Pixel*Frame)                       : 0.259
Time code of first frame                 : 00:00:00;00
Time code source                         : Group of pictures header
GOP, Open/Closed                         : Open
GOP, Open/Closed of first frame          : Closed
Stream size                              : 493 MiB (96%)

Audio
ID                                       : 189 (0xBD)-128 (0x80)
Format                                   : AC-3
Format/Info                              : Audio Coding 3
Mode extension                           : CM (complete main)
Format settings, Endianness              : Big
Muxing mode                              : DVD-Video
Duration                                 : 4mn 16s
Bit rate mode                            : Constant
Bit rate                                 : 384 Kbps
Channel(s)                               : 6 channels
Channel positions                        : Front: L C R, Side: L R, LFE
Sampling rate                            : 48.0 KHz
Compression mode                         : Lossy
Delay relative to video                  : 24ms
Stream size                              : 11.8 MiB (2%)
Thanks
 

Villand

New Member
Registered
Mar 1, 2019
19
0
1
69
Britney Spears - Do You Wanna Come Over (Today 2016) [HDTV-1080i]

***Hidden content cannot be quoted.***

Britney Spears - Make Me... (Today 2016) [HDTV-1080i]

***Hidden content cannot be quoted.***

Code:
Format                                   : MPEG-PS
File size                                : 515 MiB
Duration                                 : 4mn 16s
Overall bit rate mode                    : Variable
Overall bit rate                         : 16.8 Mbps
Law rating                               : N/A

Video
ID                                       : 224 (0xE0)
Format                                   : MPEG Video
Format version                           : Version 2
Format profile                           : Main@High
Format settings, BVOP                    : Yes
Format settings, Matrix                  : Custom
Format settings, GOP                     : Variable
Format settings, picture structure       : Frame
Duration                                 : 4mn 16s
Bit rate mode                            : Variable
Bit rate                                 : 16.1 Mbps
Maximum bit rate                         : 24.0 Mbps
Width                                    : 1 920 pixels
Height                                   : 1 080 pixels
Display aspect ratio                     : 16:9
Active Format Description                : Full frame 16:9 image
Frame rate                               : 29.970 fps
Color space                              : YUV
Chroma subsampling                       : 4:2:0
Bit depth                                : 8 bits
Scan type                                : Interlaced
Scan order                               : Top Field First
Compression mode                         : Lossy
Bits/(Pixel*Frame)                       : 0.259
Time code of first frame                 : 00:00:00;00
Time code source                         : Group of pictures header
GOP, Open/Closed                         : Open
GOP, Open/Closed of first frame          : Closed
Stream size                              : 493 MiB (96%)

Audio
ID                                       : 189 (0xBD)-128 (0x80)
Format                                   : AC-3
Format/Info                              : Audio Coding 3
Mode extension                           : CM (complete main)
Format settings, Endianness              : Big
Muxing mode                              : DVD-Video
Duration                                 : 4mn 16s
Bit rate mode                            : Constant
Bit rate                                 : 384 Kbps
Channel(s)                               : 6 channels
Channel positions                        : Front: L C R, Side: L R, LFE
Sampling rate                            : 48.0 KHz
Compression mode                         : Lossy
Delay relative to video                  : 24ms
Stream size                              : 11.8 MiB (2%)