ProRes Bruno Mars - 24K Magic (LPCM-Master-ProRes-1080p)

NCURBAN

Well-Known Member
Administrative
May 25, 2016
3,358
4,083
113
Bruno Mars - 24K Magic (LPCM-Master-ProRes-1080p)


Gener: Pop
Released: Oct 07, 2016
Copyright: ℗ 2016 Atlantic Recording Corporation for the United States and WEA International Inc. for the world outside of the United States. A Warner Music Group Company
Code:
Format                                   : MPEG-4
Format profile                           : QuickTime
Codec ID                                 : qt   2005.03 (qt  )
File size                                : 5.86 GiB
Duration                                 : 3 min 56 s
Overall bit rate mode                    : Variable
Overall bit rate                         : 213 Mb/s
Encoded date                             : UTC 2016-10-14 19:32:33
Tagged date                              : UTC 2016-10-06 19:38:44
Writing library                          : Apple QuickTime
©TIM                                     : 00;00;00;00
©TSC                                     : 30000
©TSZ                                     : 1001

Video
ID                                       : 1
Format                                   : ProRes
Format version                           : Version 0
Format profile                           : 422 HQ
Codec ID                                 : apch
Duration                                 : 3 min 56 s
Bit rate mode                            : Variable
Bit rate                                 : 211 Mb/s
Width                                    : 1 920 pixels
Height                                   : 1 080 pixels
Display aspect ratio                     : 16:9
Frame rate mode                          : Constant
Frame rate                               : 29.970 (30000/1001) FPS
Color space                              : YUV
Chroma subsampling                       : 4:2:2
Scan type                                : Interlaced
Scan type, store method                  : Interleaved fields
Scan order                               : Top Field First
Bits/(Pixel*Frame)                       : 3.395
Stream size                              : 5.82 GiB (99%)
Writing library                          : Apple
Language                                 : English
Encoded date                             : UTC 2016-10-14 19:32:33
Tagged date                              : UTC 2016-10-14 19:32:33
Color primaries                          : BT.709
Transfer characteristics                 : BT.709
Matrix coefficients                      : BT.709

Audio
ID                                       : 2
Format                                   : PCM
Format settings, Endianness              : Little
Format settings, Sign                    : Signed
Codec ID                                 : sowt
Duration                                 : 3 min 56 s
Bit rate mode                            : Constant
Bit rate                                 : 1 536 kb/s
Channel(s)                               : 2 channels
Channel positions                        : Front: L R
Sampling rate                            : 48.0 kHz
Bit depth                                : 16 bits
Stream size                              : 43.4 MiB (1%)
Language                                 : English
Encoded date                             : UTC 2016-10-14 19:32:33
Tagged date                              : UTC 2016-10-14 19:32:33
Download
[HIDE-REPLY]MEGA[/HIDE-REPLY]
 

fire fire

Member
Registered
Nov 3, 2018
88
1
8
58
Bruno Mars - 24K Magic (LPCM-Master-ProRes-1080p)




Code:
Format                                   : MPEG-4
Format profile                           : QuickTime
Codec ID                                 : qt   2005.03 (qt  )
File size                                : 5.86 GiB
Duration                                 : 3 min 56 s
Overall bit rate mode                    : Variable
Overall bit rate                         : 213 Mb/s
Encoded date                             : UTC 2016-10-14 19:32:33
Tagged date                              : UTC 2016-10-06 19:38:44
Writing library                          : Apple QuickTime
©TIM                                     : 00;00;00;00
©TSC                                     : 30000
©TSZ                                     : 1001

Video
ID                                       : 1
Format                                   : ProRes
Format version                           : Version 0
Format profile                           : 422 HQ
Codec ID                                 : apch
Duration                                 : 3 min 56 s
Bit rate mode                            : Variable
Bit rate                                 : 211 Mb/s
Width                                    : 1 920 pixels
Height                                   : 1 080 pixels
Display aspect ratio                     : 16:9
Frame rate mode                          : Constant
Frame rate                               : 29.970 (30000/1001) FPS
Color space                              : YUV
Chroma subsampling                       : 4:2:2
Scan type                                : Interlaced
Scan type, store method                  : Interleaved fields
Scan order                               : Top Field First
Bits/(Pixel*Frame)                       : 3.395
Stream size                              : 5.82 GiB (99%)
Writing library                          : Apple
Language                                 : English
Encoded date                             : UTC 2016-10-14 19:32:33
Tagged date                              : UTC 2016-10-14 19:32:33
Color primaries                          : BT.709
Transfer characteristics                 : BT.709
Matrix coefficients                      : BT.709

Audio
ID                                       : 2
Format                                   : PCM
Format settings, Endianness              : Little
Format settings, Sign                    : Signed
Codec ID                                 : sowt
Duration                                 : 3 min 56 s
Bit rate mode                            : Constant
Bit rate                                 : 1 536 kb/s
Channel(s)                               : 2 channels
Channel positions                        : Front: L R
Sampling rate                            : 48.0 kHz
Bit depth                                : 16 bits
Stream size                              : 43.4 MiB (1%)
Language                                 : English
Encoded date                             : UTC 2016-10-14 19:32:33
Tagged date                              : UTC 2016-10-14 19:32:33
Download
***Hidden content cannot be quoted.***
 

ram

Member
Registered
Dec 15, 2018
44
0
6
21
Bruno Mars - 24K Magic (LPCM-Master-ProRes-1080p)




Code:
Format                                   : MPEG-4
Format profile                           : QuickTime
Codec ID                                 : qt   2005.03 (qt  )
File size                                : 5.86 GiB
Duration                                 : 3 min 56 s
Overall bit rate mode                    : Variable
Overall bit rate                         : 213 Mb/s
Encoded date                             : UTC 2016-10-14 19:32:33
Tagged date                              : UTC 2016-10-06 19:38:44
Writing library                          : Apple QuickTime
©TIM                                     : 00;00;00;00
©TSC                                     : 30000
©TSZ                                     : 1001

Video
ID                                       : 1
Format                                   : ProRes
Format version                           : Version 0
Format profile                           : 422 HQ
Codec ID                                 : apch
Duration                                 : 3 min 56 s
Bit rate mode                            : Variable
Bit rate                                 : 211 Mb/s
Width                                    : 1 920 pixels
Height                                   : 1 080 pixels
Display aspect ratio                     : 16:9
Frame rate mode                          : Constant
Frame rate                               : 29.970 (30000/1001) FPS
Color space                              : YUV
Chroma subsampling                       : 4:2:2
Scan type                                : Interlaced
Scan type, store method                  : Interleaved fields
Scan order                               : Top Field First
Bits/(Pixel*Frame)                       : 3.395
Stream size                              : 5.82 GiB (99%)
Writing library                          : Apple
Language                                 : English
Encoded date                             : UTC 2016-10-14 19:32:33
Tagged date                              : UTC 2016-10-14 19:32:33
Color primaries                          : BT.709
Transfer characteristics                 : BT.709
Matrix coefficients                      : BT.709

Audio
ID                                       : 2
Format                                   : PCM
Format settings, Endianness              : Little
Format settings, Sign                    : Signed
Codec ID                                 : sowt
Duration                                 : 3 min 56 s
Bit rate mode                            : Constant
Bit rate                                 : 1 536 kb/s
Channel(s)                               : 2 channels
Channel positions                        : Front: L R
Sampling rate                            : 48.0 kHz
Bit depth                                : 16 bits
Stream size                              : 43.4 MiB (1%)
Language                                 : English
Encoded date                             : UTC 2016-10-14 19:32:33
Tagged date                              : UTC 2016-10-14 19:32:33
Download
***Hidden content cannot be quoted.***
magic