FEED Bruno Mars & Red Hot Chili Peppers - Super Bowl XLVIII (FEED-1080i)-TrollHD

NCURBAN

Well-Known Member
Administrative
May 25, 2016
3,347
3,894
113
Bruno Mars & Red Hot Chili Peppers - Super Bowl XLVIII (FEED-1080i)-TrollHD


Setlist:
  1. Locked Out of Heaven
  2. Treasure
  3. Runaway Baby
  4. Give It Away (Red Hot Chili Peppers cover) [with Red Hot Chili Peppers]
  5. Just the Way You Are
Code:
Format                                   : MPEG-TS
File size                                : 5.04 GiB
Duration                                 : 12mn 34s
Overall bit rate mode                    : Variable
Overall bit rate                         : 57.4 Mbps

Video
ID                                       : 408 (0x198)
Menu ID                                  : 1 (0x1)
Format                                   : MPEG Video
Format version                           : Version 2
Format profile                           : 4:2:2@High
Format settings, BVOP                    : No
Format settings, Matrix                  : Custom
Format settings, GOP                     : N=15
Format settings, picture structure       : Frame
Codec ID                                 : 2
Duration                                 : 12mn 34s
Bit rate mode                            : Variable
Bit rate                                 : 51.5 Mbps
Maximum bit rate                         : 53.8 Mbps
Width                                    : 1 920 pixels
Height                                   : 1 080 pixels
Display aspect ratio                     : 16:9
Frame rate                               : 29.970 fps
Color space                              : YUV
Chroma subsampling                       : 4:2:2
Bit depth                                : 8 bits
Scan type                                : Interlaced
Scan order                               : Top Field First
Compression mode                         : Lossy
Bits/(Pixel*Frame)                       : 0.828
Time code of first frame                 : 02:01:34;02
Time code source                         : Group of pictures header
GOP, Open/Closed                         : Closed
Stream size                              : 4.52 GiB (90%)
Color primaries                          : BT.709
Transfer characteristics                 : BT.709
Matrix coefficients                      : BT.709

Audio #1
ID                                       : 452 (0x1C4)
Menu ID                                  : 1 (0x1)
Format                                   : MPEG Audio
Format version                           : Version 1
Format profile                           : Layer 2
Mode extension                           : Intensity Stereo + MS Stereo
Codec ID                                 : 3
Duration                                 : 12mn 34s
Bit rate mode                            : Constant
Bit rate                                 : 384 Kbps
Channel(s)                               : 2 channels
Sampling rate                            : 48.0 KHz
Compression mode                         : Lossy
Delay relative to video                  : -362ms
Stream size                              : 34.5 MiB (1%)

Audio #2
ID                                       : 453 (0x1C5)
Menu ID                                  : 1 (0x1)
Format                                   : MPEG Audio
Format version                           : Version 1
Format profile                           : Layer 2
Mode extension                           : Intensity Stereo + MS Stereo
Codec ID                                 : 3
Duration                                 : 12mn 34s
Bit rate mode                            : Constant
Bit rate                                 : 384 Kbps
Channel(s)                               : 2 channels
Sampling rate                            : 48.0 KHz
Compression mode                         : Lossy
Delay relative to video                  : -386ms
Stream size                              : 34.5 MiB (1%)

Audio #3
ID                                       : 454 (0x1C6)
Menu ID                                  : 1 (0x1)
Format                                   : MPEG Audio
Format version                           : Version 1
Format profile                           : Layer 2
Mode extension                           : Intensity Stereo + MS Stereo
Codec ID                                 : 3
Duration                                 : 12mn 34s
Bit rate mode                            : Constant
Bit rate                                 : 384 Kbps
Channel(s)                               : 2 channels
Sampling rate                            : 48.0 KHz
Compression mode                         : Lossy
Delay relative to video                  : -362ms
Stream size                              : 34.5 MiB (1%)

Audio #4
ID                                       : 455 (0x1C7)
Menu ID                                  : 1 (0x1)
Format                                   : MPEG Audio
Format version                           : Version 1
Format profile                           : Layer 2
Mode extension                           : Intensity Stereo + MS Stereo
Codec ID                                 : 3
Duration                                 : 12mn 34s
Bit rate mode                            : Constant
Bit rate                                 : 384 Kbps
Channel(s)                               : 2 channels
Sampling rate                            : 48.0 KHz
Compression mode                         : Lossy
Delay relative to video                  : -362ms
Stream size                              : 34.5 MiB (1%)

Audio #5
ID                                       : 456 (0x1C8)
Menu ID                                  : 1 (0x1)
Format                                   : MPEG Audio
Format version                           : Version 1
Format profile                           : Layer 2
Mode extension                           : Intensity Stereo + MS Stereo
Codec ID                                 : 3
Duration                                 : 12mn 34s
Bit rate mode                            : Constant
Bit rate                                 : 384 Kbps
Channel(s)                               : 2 channels
Sampling rate                            : 48.0 KHz
Compression mode                         : Lossy
Delay relative to video                  : -362ms
Stream size                              : 34.5 MiB (1%)

Audio #6
ID                                       : 457 (0x1C9)
Menu ID                                  : 1 (0x1)
Format                                   : MPEG Audio
Format version                           : Version 1
Format profile                           : Layer 2
Mode extension                           : Intensity Stereo + MS Stereo
Codec ID                                 : 3
Duration                                 : 12mn 34s
Bit rate mode                            : Constant
Bit rate                                 : 384 Kbps
Channel(s)                               : 2 channels
Sampling rate                            : 48.0 KHz
Compression mode                         : Lossy
Delay relative to video                  : -362ms
Stream size                              : 34.5 MiB (1%)

Audio #7
ID                                       : 458 (0x1CA)
Menu ID                                  : 1 (0x1)
Format                                   : MPEG Audio
Format version                           : Version 1
Format profile                           : Layer 2
Mode extension                           : Intensity Stereo + MS Stereo
Codec ID                                 : 3
Duration                                 : 12mn 34s
Bit rate mode                            : Constant
Bit rate                                 : 384 Kbps
Channel(s)                               : 2 channels
Sampling rate                            : 48.0 KHz
Compression mode                         : Lossy
Delay relative to video                  : -362ms
Stream size                              : 34.5 MiB (1%)

Audio #8
ID                                       : 459 (0x1CB)
Menu ID                                  : 1 (0x1)
Format                                   : MPEG Audio
Format version                           : Version 1
Format profile                           : Layer 2
Mode extension                           : Intensity Stereo + MS Stereo
Codec ID                                 : 3
Duration                                 : 12mn 34s
Bit rate mode                            : Constant
Bit rate                                 : 384 Kbps
Channel(s)                               : 2 channels
Sampling rate                            : 48.0 KHz
Compression mode                         : Lossy
Delay relative to video                  : -362ms
Stream size                              : 34.5 MiB (1%)

Menu
ID                                       : 32 (0x20)
Menu ID                                  : 1 (0x1)
List                                     : 408 (0x198) (MPEG Video) / 452 (0x1C4) (MPEG Audio) / 453 (0x1C5) (MPEG Audio) / 454 (0x1C6) (MPEG Audio) / 455 (0x1C7) (MPEG Audio) / 456 (0x1C8) (MPEG Audio) / 457 (0x1C9) (MPEG Audio) / 458 (0x1CA) (MPEG Audio) / 459 (0x1CB) (MPEG Audio)
Service name                             :  
Service provider                         : Generated by TSReader 2.8.46b on 2014/02/02 16:55
Service type                             : digital television

Download
You must reply before you can see the hidden data contained here.
 

MichaelHarry

Member
Registered
Jun 10, 2019
78
4
8
52
chickens and nugge
Bruno Mars & Red Hot Chili Peppers - Super Bowl XLVIII (FEED-1080i)-TrollHD


Setlist:

  1. Locked Out of Heaven
    Treasure
    Runaway Baby
    Give It Away (Red Hot Chili Peppers cover) [with Red Hot Chili Peppers]
    Just the Way You Are
Code:
Format                                   : MPEG-TS
File size                                : 5.04 GiB
Duration                                 : 12mn 34s
Overall bit rate mode                    : Variable
Overall bit rate                         : 57.4 Mbps

Video
ID                                       : 408 (0x198)
Menu ID                                  : 1 (0x1)
Format                                   : MPEG Video
Format version                           : Version 2
Format profile                           : 4:2:2@High
Format settings, BVOP                    : No
Format settings, Matrix                  : Custom
Format settings, GOP                     : N=15
Format settings, picture structure       : Frame
Codec ID                                 : 2
Duration                                 : 12mn 34s
Bit rate mode                            : Variable
Bit rate                                 : 51.5 Mbps
Maximum bit rate                         : 53.8 Mbps
Width                                    : 1 920 pixels
Height                                   : 1 080 pixels
Display aspect ratio                     : 16:9
Frame rate                               : 29.970 fps
Color space                              : YUV
Chroma subsampling                       : 4:2:2
Bit depth                                : 8 bits
Scan type                                : Interlaced
Scan order                               : Top Field First
Compression mode                         : Lossy
Bits/(Pixel*Frame)                       : 0.828
Time code of first frame                 : 02:01:34;02
Time code source                         : Group of pictures header
GOP, Open/Closed                         : Closed
Stream size                              : 4.52 GiB (90%)
Color primaries                          : BT.709
Transfer characteristics                 : BT.709
Matrix coefficients                      : BT.709

Audio #1
ID                                       : 452 (0x1C4)
Menu ID                                  : 1 (0x1)
Format                                   : MPEG Audio
Format version                           : Version 1
Format profile                           : Layer 2
Mode extension                           : Intensity Stereo + MS Stereo
Codec ID                                 : 3
Duration                                 : 12mn 34s
Bit rate mode                            : Constant
Bit rate                                 : 384 Kbps
Channel(s)                               : 2 channels
Sampling rate                            : 48.0 KHz
Compression mode                         : Lossy
Delay relative to video                  : -362ms
Stream size                              : 34.5 MiB (1%)

Audio #2
ID                                       : 453 (0x1C5)
Menu ID                                  : 1 (0x1)
Format                                   : MPEG Audio
Format version                           : Version 1
Format profile                           : Layer 2
Mode extension                           : Intensity Stereo + MS Stereo
Codec ID                                 : 3
Duration                                 : 12mn 34s
Bit rate mode                            : Constant
Bit rate                                 : 384 Kbps
Channel(s)                               : 2 channels
Sampling rate                            : 48.0 KHz
Compression mode                         : Lossy
Delay relative to video                  : -386ms
Stream size                              : 34.5 MiB (1%)

Audio #3
ID                                       : 454 (0x1C6)
Menu ID                                  : 1 (0x1)
Format                                   : MPEG Audio
Format version                           : Version 1
Format profile                           : Layer 2
Mode extension                           : Intensity Stereo + MS Stereo
Codec ID                                 : 3
Duration                                 : 12mn 34s
Bit rate mode                            : Constant
Bit rate                                 : 384 Kbps
Channel(s)                               : 2 channels
Sampling rate                            : 48.0 KHz
Compression mode                         : Lossy
Delay relative to video                  : -362ms
Stream size                              : 34.5 MiB (1%)

Audio #4
ID                                       : 455 (0x1C7)
Menu ID                                  : 1 (0x1)
Format                                   : MPEG Audio
Format version                           : Version 1
Format profile                           : Layer 2
Mode extension                           : Intensity Stereo + MS Stereo
Codec ID                                 : 3
Duration                                 : 12mn 34s
Bit rate mode                            : Constant
Bit rate                                 : 384 Kbps
Channel(s)                               : 2 channels
Sampling rate                            : 48.0 KHz
Compression mode                         : Lossy
Delay relative to video                  : -362ms
Stream size                              : 34.5 MiB (1%)

Audio #5
ID                                       : 456 (0x1C8)
Menu ID                                  : 1 (0x1)
Format                                   : MPEG Audio
Format version                           : Version 1
Format profile                           : Layer 2
Mode extension                           : Intensity Stereo + MS Stereo
Codec ID                                 : 3
Duration                                 : 12mn 34s
Bit rate mode                            : Constant
Bit rate                                 : 384 Kbps
Channel(s)                               : 2 channels
Sampling rate                            : 48.0 KHz
Compression mode                         : Lossy
Delay relative to video                  : -362ms
Stream size                              : 34.5 MiB (1%)

Audio #6
ID                                       : 457 (0x1C9)
Menu ID                                  : 1 (0x1)
Format                                   : MPEG Audio
Format version                           : Version 1
Format profile                           : Layer 2
Mode extension                           : Intensity Stereo + MS Stereo
Codec ID                                 : 3
Duration                                 : 12mn 34s
Bit rate mode                            : Constant
Bit rate                                 : 384 Kbps
Channel(s)                               : 2 channels
Sampling rate                            : 48.0 KHz
Compression mode                         : Lossy
Delay relative to video                  : -362ms
Stream size                              : 34.5 MiB (1%)

Audio #7
ID                                       : 458 (0x1CA)
Menu ID                                  : 1 (0x1)
Format                                   : MPEG Audio
Format version                           : Version 1
Format profile                           : Layer 2
Mode extension                           : Intensity Stereo + MS Stereo
Codec ID                                 : 3
Duration                                 : 12mn 34s
Bit rate mode                            : Constant
Bit rate                                 : 384 Kbps
Channel(s)                               : 2 channels
Sampling rate                            : 48.0 KHz
Compression mode                         : Lossy
Delay relative to video                  : -362ms
Stream size                              : 34.5 MiB (1%)

Audio #8
ID                                       : 459 (0x1CB)
Menu ID                                  : 1 (0x1)
Format                                   : MPEG Audio
Format version                           : Version 1
Format profile                           : Layer 2
Mode extension                           : Intensity Stereo + MS Stereo
Codec ID                                 : 3
Duration                                 : 12mn 34s
Bit rate mode                            : Constant
Bit rate                                 : 384 Kbps
Channel(s)                               : 2 channels
Sampling rate                            : 48.0 KHz
Compression mode                         : Lossy
Delay relative to video                  : -362ms
Stream size                              : 34.5 MiB (1%)

Menu
ID                                       : 32 (0x20)
Menu ID                                  : 1 (0x1)
List                                     : 408 (0x198) (MPEG Video) / 452 (0x1C4) (MPEG Audio) / 453 (0x1C5) (MPEG Audio) / 454 (0x1C6) (MPEG Audio) / 455 (0x1C7) (MPEG Audio) / 456 (0x1C8) (MPEG Audio) / 457 (0x1C9) (MPEG Audio) / 458 (0x1CA) (MPEG Audio) / 459 (0x1CB) (MPEG Audio)
Service name                             : 
Service provider                         : Generated by TSReader 2.8.46b on 2014/02/02 16:55
Service type                             : digital television

Download
***Hidden content cannot be quoted.***
ts be dawg
 

nti

New Member
Registered
Jun 6, 2020
6
0
1
20
thank you, i love bruno's work, he is very talented.