Master Calvin Harris & Disciples - How Deep Is Your Love (Master-1080p)

NCURBAN

Well-Known Member
Administrative
May 25, 2016
3,347
3,629
113
Calvin Harris & Disciples - How Deep Is Your Love (Master-1080p)



Geners: Dance,Electronic, Rock
Released: Aug 6, 2016​

Code:
Format                                   : MPEG-4
Format profile                           : QuickTime
Codec ID                                 : qt
File size                                : 1.36 GiB
Duration                                 : 4mn 39s
Overall bit rate                         : 41.7 Mbps
Encoded date                             : UTC 2015-08-19 23:04:11
Tagged date                              : UTC 2015-08-19 23:09:35
Writing library                          : Apple QuickTime
©TIM                                     : 00:00:00:00
©TSC                                     : 24000
©TSZ                                     : 1001

Video
ID                                       : 1
Format                                   : AVC
Format/Info                              : Advanced Video Codec
Format profile                           : Main@L5.1
Format settings, CABAC                   : No
Format settings, ReFrames                : 2 frames
Format settings, GOP                     : M=1, N=24
Codec ID                                 : avc1
Codec ID/Info                            : Advanced Video Coding
Duration                                 : 4mn 39s
Bit rate                                 : 40.2 Mbps
Width                                    : 1 920 pixels
Height                                   : 710 pixels
Display aspect ratio                     : 2.704
Frame rate mode                          : Constant
Frame rate                               : 23.976 fps
Color space                              : YUV
Chroma subsampling                       : 4:2:0
Bit depth                                : 8 bits
Scan type                                : Progressive
Bits/(Pixel*Frame)                       : 1.229
Stream size                              : 1.31 GiB (96%)
Language                                 : English
Encoded date                             : UTC 2015-08-19 23:04:11
Tagged date                              : UTC 2015-08-19 23:09:35
Color range                              : Limited
Color primaries                          : BT.709
Transfer characteristics                 : BT.709
Matrix coefficients                      : BT.709

Audio
ID                                       : 2
Format                                   : PCM
Format settings, Endianness              : Little
Format settings, Sign                    : Signed
Codec ID                                 : sowt
Duration                                 : 4mn 39s
Bit rate mode                            : Constant
Bit rate                                 : 1 536 Kbps
Channel(s)                               : 2 channels
Channel positions                        : Front: L R
Sampling rate                            : 48.0 KHz
Bit depth                                : 16 bits
Stream size                              : 51.1 MiB (4%)
Language                                 : English
Encoded date                             : UTC 2015-08-19 23:04:11
Tagged date                              : UTC 2015-08-19 23:09:35

Other
ID                                       : 3
Type                                     : Time code
Format                                   : QuickTime TC
Duration                                 : 4mn 39s
Time code of first frame                 : 00:00:00:00
Time code, striped                       : Yes
Language                                 : English
Encoded date                             : UTC 2015-08-19 23:09:35
Tagged date                              : UTC 2015-08-19 23:09:35

Download
[HIDE-REPLY]MEGA[/HIDE-REPLY]
 

widsuya

New Member
Registered
Feb 9, 2019
4
0
1
26
Calvin Harris & Disciples - How Deep Is Your Love (Master-1080p)



Geners: Dance,Electronic, Rock
Released: Aug 6, 2016​

Code:
Format                                   : MPEG-4
Format profile                           : QuickTime
Codec ID                                 : qt
File size                                : 1.36 GiB
Duration                                 : 4mn 39s
Overall bit rate                         : 41.7 Mbps
Encoded date                             : UTC 2015-08-19 23:04:11
Tagged date                              : UTC 2015-08-19 23:09:35
Writing library                          : Apple QuickTime
©TIM                                     : 00:00:00:00
©TSC                                     : 24000
©TSZ                                     : 1001

Video
ID                                       : 1
Format                                   : AVC
Format/Info                              : Advanced Video Codec
Format profile                           : Main@L5.1
Format settings, CABAC                   : No
Format settings, ReFrames                : 2 frames
Format settings, GOP                     : M=1, N=24
Codec ID                                 : avc1
Codec ID/Info                            : Advanced Video Coding
Duration                                 : 4mn 39s
Bit rate                                 : 40.2 Mbps
Width                                    : 1 920 pixels
Height                                   : 710 pixels
Display aspect ratio                     : 2.704
Frame rate mode                          : Constant
Frame rate                               : 23.976 fps
Color space                              : YUV
Chroma subsampling                       : 4:2:0
Bit depth                                : 8 bits
Scan type                                : Progressive
Bits/(Pixel*Frame)                       : 1.229
Stream size                              : 1.31 GiB (96%)
Language                                 : English
Encoded date                             : UTC 2015-08-19 23:04:11
Tagged date                              : UTC 2015-08-19 23:09:35
Color range                              : Limited
Color primaries                          : BT.709
Transfer characteristics                 : BT.709
Matrix coefficients                      : BT.709

Audio
ID                                       : 2
Format                                   : PCM
Format settings, Endianness              : Little
Format settings, Sign                    : Signed
Codec ID                                 : sowt
Duration                                 : 4mn 39s
Bit rate mode                            : Constant
Bit rate                                 : 1 536 Kbps
Channel(s)                               : 2 channels
Channel positions                        : Front: L R
Sampling rate                            : 48.0 KHz
Bit depth                                : 16 bits
Stream size                              : 51.1 MiB (4%)
Language                                 : English
Encoded date                             : UTC 2015-08-19 23:04:11
Tagged date                              : UTC 2015-08-19 23:09:35

Other
ID                                       : 3
Type                                     : Time code
Format                                   : QuickTime TC
Duration                                 : 4mn 39s
Time code of first frame                 : 00:00:00:00
Time code, striped                       : Yes
Language                                 : English
Encoded date                             : UTC 2015-08-19 23:09:35
Tagged date                              : UTC 2015-08-19 23:09:35

Download
***Hidden content cannot be quoted.***
thank you
 

Enkiyt92

Member
Registered
Apr 2, 2019
30
0
6
27
Calvin Harris & Disciples - How Deep Is Your Love (Master-1080p)



Geners: Dance,Electronic, Rock
Released: Aug 6, 2016​

Code:
Format                                   : MPEG-4
Format profile                           : QuickTime
Codec ID                                 : qt
File size                                : 1.36 GiB
Duration                                 : 4mn 39s
Overall bit rate                         : 41.7 Mbps
Encoded date                             : UTC 2015-08-19 23:04:11
Tagged date                              : UTC 2015-08-19 23:09:35
Writing library                          : Apple QuickTime
©TIM                                     : 00:00:00:00
©TSC                                     : 24000
©TSZ                                     : 1001

Video
ID                                       : 1
Format                                   : AVC
Format/Info                              : Advanced Video Codec
Format profile                           : Main@L5.1
Format settings, CABAC                   : No
Format settings, ReFrames                : 2 frames
Format settings, GOP                     : M=1, N=24
Codec ID                                 : avc1
Codec ID/Info                            : Advanced Video Coding
Duration                                 : 4mn 39s
Bit rate                                 : 40.2 Mbps
Width                                    : 1 920 pixels
Height                                   : 710 pixels
Display aspect ratio                     : 2.704
Frame rate mode                          : Constant
Frame rate                               : 23.976 fps
Color space                              : YUV
Chroma subsampling                       : 4:2:0
Bit depth                                : 8 bits
Scan type                                : Progressive
Bits/(Pixel*Frame)                       : 1.229
Stream size                              : 1.31 GiB (96%)
Language                                 : English
Encoded date                             : UTC 2015-08-19 23:04:11
Tagged date                              : UTC 2015-08-19 23:09:35
Color range                              : Limited
Color primaries                          : BT.709
Transfer characteristics                 : BT.709
Matrix coefficients                      : BT.709

Audio
ID                                       : 2
Format                                   : PCM
Format settings, Endianness              : Little
Format settings, Sign                    : Signed
Codec ID                                 : sowt
Duration                                 : 4mn 39s
Bit rate mode                            : Constant
Bit rate                                 : 1 536 Kbps
Channel(s)                               : 2 channels
Channel positions                        : Front: L R
Sampling rate                            : 48.0 KHz
Bit depth                                : 16 bits
Stream size                              : 51.1 MiB (4%)
Language                                 : English
Encoded date                             : UTC 2015-08-19 23:04:11
Tagged date                              : UTC 2015-08-19 23:09:35

Other
ID                                       : 3
Type                                     : Time code
Format                                   : QuickTime TC
Duration                                 : 4mn 39s
Time code of first frame                 : 00:00:00:00
Time code, striped                       : Yes
Language                                 : English
Encoded date                             : UTC 2015-08-19 23:09:35
Tagged date                              : UTC 2015-08-19 23:09:35

Download
***Hidden content cannot be quoted.***
tyty
 

LOOOOL

Member
Registered
Dec 2, 2018
73
2
8
23
Calvin Harris & Disciples - How Deep Is Your Love (Master-1080p)



Geners: Dance,Electronic, Rock
Released: Aug 6, 2016​

Code:
Format                                   : MPEG-4
Format profile                           : QuickTime
Codec ID                                 : qt
File size                                : 1.36 GiB
Duration                                 : 4mn 39s
Overall bit rate                         : 41.7 Mbps
Encoded date                             : UTC 2015-08-19 23:04:11
Tagged date                              : UTC 2015-08-19 23:09:35
Writing library                          : Apple QuickTime
©TIM                                     : 00:00:00:00
©TSC                                     : 24000
©TSZ                                     : 1001

Video
ID                                       : 1
Format                                   : AVC
Format/Info                              : Advanced Video Codec
Format profile                           : Main@L5.1
Format settings, CABAC                   : No
Format settings, ReFrames                : 2 frames
Format settings, GOP                     : M=1, N=24
Codec ID                                 : avc1
Codec ID/Info                            : Advanced Video Coding
Duration                                 : 4mn 39s
Bit rate                                 : 40.2 Mbps
Width                                    : 1 920 pixels
Height                                   : 710 pixels
Display aspect ratio                     : 2.704
Frame rate mode                          : Constant
Frame rate                               : 23.976 fps
Color space                              : YUV
Chroma subsampling                       : 4:2:0
Bit depth                                : 8 bits
Scan type                                : Progressive
Bits/(Pixel*Frame)                       : 1.229
Stream size                              : 1.31 GiB (96%)
Language                                 : English
Encoded date                             : UTC 2015-08-19 23:04:11
Tagged date                              : UTC 2015-08-19 23:09:35
Color range                              : Limited
Color primaries                          : BT.709
Transfer characteristics                 : BT.709
Matrix coefficients                      : BT.709

Audio
ID                                       : 2
Format                                   : PCM
Format settings, Endianness              : Little
Format settings, Sign                    : Signed
Codec ID                                 : sowt
Duration                                 : 4mn 39s
Bit rate mode                            : Constant
Bit rate                                 : 1 536 Kbps
Channel(s)                               : 2 channels
Channel positions                        : Front: L R
Sampling rate                            : 48.0 KHz
Bit depth                                : 16 bits
Stream size                              : 51.1 MiB (4%)
Language                                 : English
Encoded date                             : UTC 2015-08-19 23:04:11
Tagged date                              : UTC 2015-08-19 23:09:35

Other
ID                                       : 3
Type                                     : Time code
Format                                   : QuickTime TC
Duration                                 : 4mn 39s
Time code of first frame                 : 00:00:00:00
Time code, striped                       : Yes
Language                                 : English
Encoded date                             : UTC 2015-08-19 23:09:35
Tagged date                              : UTC 2015-08-19 23:09:35

Download
***Hidden content cannot be quoted.***
asd
 

Icaka03

Member
Registered
May 11, 2019
99
1
8
24
Calvin Harris & Disciples - How Deep Is Your Love (Master-1080p)



Geners: Dance,Electronic, Rock
Released: Aug 6, 2016​

Code:
Format                                   : MPEG-4
Format profile                           : QuickTime
Codec ID                                 : qt
File size                                : 1.36 GiB
Duration                                 : 4mn 39s
Overall bit rate                         : 41.7 Mbps
Encoded date                             : UTC 2015-08-19 23:04:11
Tagged date                              : UTC 2015-08-19 23:09:35
Writing library                          : Apple QuickTime
©TIM                                     : 00:00:00:00
©TSC                                     : 24000
©TSZ                                     : 1001

Video
ID                                       : 1
Format                                   : AVC
Format/Info                              : Advanced Video Codec
Format profile                           : Main@L5.1
Format settings, CABAC                   : No
Format settings, ReFrames                : 2 frames
Format settings, GOP                     : M=1, N=24
Codec ID                                 : avc1
Codec ID/Info                            : Advanced Video Coding
Duration                                 : 4mn 39s
Bit rate                                 : 40.2 Mbps
Width                                    : 1 920 pixels
Height                                   : 710 pixels
Display aspect ratio                     : 2.704
Frame rate mode                          : Constant
Frame rate                               : 23.976 fps
Color space                              : YUV
Chroma subsampling                       : 4:2:0
Bit depth                                : 8 bits
Scan type                                : Progressive
Bits/(Pixel*Frame)                       : 1.229
Stream size                              : 1.31 GiB (96%)
Language                                 : English
Encoded date                             : UTC 2015-08-19 23:04:11
Tagged date                              : UTC 2015-08-19 23:09:35
Color range                              : Limited
Color primaries                          : BT.709
Transfer characteristics                 : BT.709
Matrix coefficients                      : BT.709

Audio
ID                                       : 2
Format                                   : PCM
Format settings, Endianness              : Little
Format settings, Sign                    : Signed
Codec ID                                 : sowt
Duration                                 : 4mn 39s
Bit rate mode                            : Constant
Bit rate                                 : 1 536 Kbps
Channel(s)                               : 2 channels
Channel positions                        : Front: L R
Sampling rate                            : 48.0 KHz
Bit depth                                : 16 bits
Stream size                              : 51.1 MiB (4%)
Language                                 : English
Encoded date                             : UTC 2015-08-19 23:04:11
Tagged date                              : UTC 2015-08-19 23:09:35

Other
ID                                       : 3
Type                                     : Time code
Format                                   : QuickTime TC
Duration                                 : 4mn 39s
Time code of first frame                 : 00:00:00:00
Time code, striped                       : Yes
Language                                 : English
Encoded date                             : UTC 2015-08-19 23:09:35
Tagged date                              : UTC 2015-08-19 23:09:35

Download
***Hidden content cannot be quoted.***
thank yu
 

NhatDoan

New Member
Registered
Jun 22, 2019
10
0
1
27
Calvin Harris & Disciples - How Deep Is Your Love (Master-1080p)



Geners: Dance,Electronic, Rock
Released: Aug 6, 2016​

Code:
Format                                   : MPEG-4
Format profile                           : QuickTime
Codec ID                                 : qt
File size                                : 1.36 GiB
Duration                                 : 4mn 39s
Overall bit rate                         : 41.7 Mbps
Encoded date                             : UTC 2015-08-19 23:04:11
Tagged date                              : UTC 2015-08-19 23:09:35
Writing library                          : Apple QuickTime
©TIM                                     : 00:00:00:00
©TSC                                     : 24000
©TSZ                                     : 1001

Video
ID                                       : 1
Format                                   : AVC
Format/Info                              : Advanced Video Codec
Format profile                           : Main@L5.1
Format settings, CABAC                   : No
Format settings, ReFrames                : 2 frames
Format settings, GOP                     : M=1, N=24
Codec ID                                 : avc1
Codec ID/Info                            : Advanced Video Coding
Duration                                 : 4mn 39s
Bit rate                                 : 40.2 Mbps
Width                                    : 1 920 pixels
Height                                   : 710 pixels
Display aspect ratio                     : 2.704
Frame rate mode                          : Constant
Frame rate                               : 23.976 fps
Color space                              : YUV
Chroma subsampling                       : 4:2:0
Bit depth                                : 8 bits
Scan type                                : Progressive
Bits/(Pixel*Frame)                       : 1.229
Stream size                              : 1.31 GiB (96%)
Language                                 : English
Encoded date                             : UTC 2015-08-19 23:04:11
Tagged date                              : UTC 2015-08-19 23:09:35
Color range                              : Limited
Color primaries                          : BT.709
Transfer characteristics                 : BT.709
Matrix coefficients                      : BT.709

Audio
ID                                       : 2
Format                                   : PCM
Format settings, Endianness              : Little
Format settings, Sign                    : Signed
Codec ID                                 : sowt
Duration                                 : 4mn 39s
Bit rate mode                            : Constant
Bit rate                                 : 1 536 Kbps
Channel(s)                               : 2 channels
Channel positions                        : Front: L R
Sampling rate                            : 48.0 KHz
Bit depth                                : 16 bits
Stream size                              : 51.1 MiB (4%)
Language                                 : English
Encoded date                             : UTC 2015-08-19 23:04:11
Tagged date                              : UTC 2015-08-19 23:09:35

Other
ID                                       : 3
Type                                     : Time code
Format                                   : QuickTime TC
Duration                                 : 4mn 39s
Time code of first frame                 : 00:00:00:00
Time code, striped                       : Yes
Language                                 : English
Encoded date                             : UTC 2015-08-19 23:09:35
Tagged date                              : UTC 2015-08-19 23:09:35

Download
***Hidden content cannot be quoted.***
THanks!!
 

unkwn2u

New Member
Registered
Jul 29, 2019
14
0
1
40
Calvin Harris & Disciples - How Deep Is Your Love (Master-1080p)



Geners: Dance,Electronic, Rock
Released: Aug 6, 2016​

Code:
Format                                   : MPEG-4
Format profile                           : QuickTime
Codec ID                                 : qt
File size                                : 1.36 GiB
Duration                                 : 4mn 39s
Overall bit rate                         : 41.7 Mbps
Encoded date                             : UTC 2015-08-19 23:04:11
Tagged date                              : UTC 2015-08-19 23:09:35
Writing library                          : Apple QuickTime
©TIM                                     : 00:00:00:00
©TSC                                     : 24000
©TSZ                                     : 1001

Video
ID                                       : 1
Format                                   : AVC
Format/Info                              : Advanced Video Codec
Format profile                           : Main@L5.1
Format settings, CABAC                   : No
Format settings, ReFrames                : 2 frames
Format settings, GOP                     : M=1, N=24
Codec ID                                 : avc1
Codec ID/Info                            : Advanced Video Coding
Duration                                 : 4mn 39s
Bit rate                                 : 40.2 Mbps
Width                                    : 1 920 pixels
Height                                   : 710 pixels
Display aspect ratio                     : 2.704
Frame rate mode                          : Constant
Frame rate                               : 23.976 fps
Color space                              : YUV
Chroma subsampling                       : 4:2:0
Bit depth                                : 8 bits
Scan type                                : Progressive
Bits/(Pixel*Frame)                       : 1.229
Stream size                              : 1.31 GiB (96%)
Language                                 : English
Encoded date                             : UTC 2015-08-19 23:04:11
Tagged date                              : UTC 2015-08-19 23:09:35
Color range                              : Limited
Color primaries                          : BT.709
Transfer characteristics                 : BT.709
Matrix coefficients                      : BT.709

Audio
ID                                       : 2
Format                                   : PCM
Format settings, Endianness              : Little
Format settings, Sign                    : Signed
Codec ID                                 : sowt
Duration                                 : 4mn 39s
Bit rate mode                            : Constant
Bit rate                                 : 1 536 Kbps
Channel(s)                               : 2 channels
Channel positions                        : Front: L R
Sampling rate                            : 48.0 KHz
Bit depth                                : 16 bits
Stream size                              : 51.1 MiB (4%)
Language                                 : English
Encoded date                             : UTC 2015-08-19 23:04:11
Tagged date                              : UTC 2015-08-19 23:09:35

Other
ID                                       : 3
Type                                     : Time code
Format                                   : QuickTime TC
Duration                                 : 4mn 39s
Time code of first frame                 : 00:00:00:00
Time code, striped                       : Yes
Language                                 : English
Encoded date                             : UTC 2015-08-19 23:09:35
Tagged date                              : UTC 2015-08-19 23:09:35

Download
***Hidden content cannot be quoted.***