ProRes Calvin Harris feat. Rihanna - This Is What You Came For (LPCM-Master-ProRes-1080p)

NCURBAN

Well-Known Member
Administrative
May 25, 2016
3,347
3,619
113
Calvin Harris feat. Rihanna - This Is What You Came For (LPCM-Master-ProRes-1080p)


Gener: Dance
Released: Jun 16, 2016
Copyright: (C) 2016 Sony Music Entertainment UK Limited / Westbury Road Entertainment LLC
Code:
Format                                   : MPEG-4
Format profile                           : QuickTime
Codec ID                                 : qt   2005.03 (qt  )
File size                                : 4.51 GiB
Duration                                 : 4 min 1 s
Overall bit rate mode                    : Variable
Overall bit rate                         : 160 Mb/s
Encoded date                             : UTC 2016-06-16 19:17:55
Tagged date                              : UTC 2016-06-16 19:18:34
Writing library                          : Apple QuickTime 7.7.3
com.apple.quicktime.player.movie.audio.m : (Binary)

Video
ID                                       : 2
Format                                   : ProRes
Format version                           : Version 0
Format profile                           : 422 HQ
Codec ID                                 : apch
Duration                                 : 4 min 1 s
Bit rate mode                            : Variable
Bit rate                                 : 159 Mb/s
Width                                    : 1 920 pixels
Height                                   : 1 080 pixels
Display aspect ratio                     : 16:9
Frame rate mode                          : Constant
Frame rate                               : 23.976 (23976/1000) FPS
Color space                              : YUV
Chroma subsampling                       : 4:2:2
Scan type                                : Progressive
Bits/(Pixel*Frame)                       : 3.197
Stream size                              : 4.47 GiB (99%)
Writing library                          : Apple
Language                                 : English
Encoded date                             : UTC 2016-06-16 19:17:04
Tagged date                              : UTC 2016-06-16 19:18:34
Matrix coefficients                      : BT.709

Audio
ID                                       : 1
Format                                   : PCM
Format settings, Endianness              : Big
Format settings, Sign                    : Signed
Codec ID                                 : twos
Duration                                 : 4 min 1 s
Bit rate mode                            : Constant
Bit rate                                 : 1 411.2 kb/s
Channel(s)                               : 2 channels
Channel positions                        : Front: L R
Sampling rate                            : 44.1 kHz
Bit depth                                : 16 bits
Stream size                              : 40.6 MiB (1%)
Language                                 : English
Encoded date                             : UTC 2016-06-16 19:17:04
Tagged date                              : UTC 2016-06-16 19:18:34
Download
You must reply before you can see the hidden data contained here.
 

RUNE

Member
Registered
Aug 17, 2016
50
0
6
42
Calvin Harris feat. Rihanna - This Is What You Came For (LPCM-Master-ProRes-1080p)



Code:
Format                                   : MPEG-4
Format profile                           : QuickTime
Codec ID                                 : qt   2005.03 (qt  )
File size                                : 4.51 GiB
Duration                                 : 4 min 1 s
Overall bit rate mode                    : Variable
Overall bit rate                         : 160 Mb/s
Encoded date                             : UTC 2016-06-16 19:17:55
Tagged date                              : UTC 2016-06-16 19:18:34
Writing library                          : Apple QuickTime 7.7.3
com.apple.quicktime.player.movie.audio.m : (Binary)

Video
ID                                       : 2
Format                                   : ProRes
Format version                           : Version 0
Format profile                           : 422 HQ
Codec ID                                 : apch
Duration                                 : 4 min 1 s
Bit rate mode                            : Variable
Bit rate                                 : 159 Mb/s
Width                                    : 1 920 pixels
Height                                   : 1 080 pixels
Display aspect ratio                     : 16:9
Frame rate mode                          : Constant
Frame rate                               : 23.976 (23976/1000) FPS
Color space                              : YUV
Chroma subsampling                       : 4:2:2
Scan type                                : Progressive
Bits/(Pixel*Frame)                       : 3.197
Stream size                              : 4.47 GiB (99%)
Writing library                          : Apple
Language                                 : English
Encoded date                             : UTC 2016-06-16 19:17:04
Tagged date                              : UTC 2016-06-16 19:18:34
Matrix coefficients                      : BT.709

Audio
ID                                       : 1
Format                                   : PCM
Format settings, Endianness              : Big
Format settings, Sign                    : Signed
Codec ID                                 : twos
Duration                                 : 4 min 1 s
Bit rate mode                            : Constant
Bit rate                                 : 1 411.2 kb/s
Channel(s)                               : 2 channels
Channel positions                        : Front: L R
Sampling rate                            : 44.1 kHz
Bit depth                                : 16 bits
Stream size                              : 40.6 MiB (1%)
Language                                 : English
Encoded date                             : UTC 2016-06-16 19:17:04
Tagged date                              : UTC 2016-06-16 19:18:34
Download
***Hidden content cannot be quoted.***
Thank u!
 

Natt

Member
Registered
Jun 11, 2018
56
0
6
21
Calvin Harris feat. Rihanna - This Is What You Came For (LPCM-Master-ProRes-1080p)



Code:
Format                                   : MPEG-4
Format profile                           : QuickTime
Codec ID                                 : qt   2005.03 (qt  )
File size                                : 4.51 GiB
Duration                                 : 4 min 1 s
Overall bit rate mode                    : Variable
Overall bit rate                         : 160 Mb/s
Encoded date                             : UTC 2016-06-16 19:17:55
Tagged date                              : UTC 2016-06-16 19:18:34
Writing library                          : Apple QuickTime 7.7.3
com.apple.quicktime.player.movie.audio.m : (Binary)

Video
ID                                       : 2
Format                                   : ProRes
Format version                           : Version 0
Format profile                           : 422 HQ
Codec ID                                 : apch
Duration                                 : 4 min 1 s
Bit rate mode                            : Variable
Bit rate                                 : 159 Mb/s
Width                                    : 1 920 pixels
Height                                   : 1 080 pixels
Display aspect ratio                     : 16:9
Frame rate mode                          : Constant
Frame rate                               : 23.976 (23976/1000) FPS
Color space                              : YUV
Chroma subsampling                       : 4:2:2
Scan type                                : Progressive
Bits/(Pixel*Frame)                       : 3.197
Stream size                              : 4.47 GiB (99%)
Writing library                          : Apple
Language                                 : English
Encoded date                             : UTC 2016-06-16 19:17:04
Tagged date                              : UTC 2016-06-16 19:18:34
Matrix coefficients                      : BT.709

Audio
ID                                       : 1
Format                                   : PCM
Format settings, Endianness              : Big
Format settings, Sign                    : Signed
Codec ID                                 : twos
Duration                                 : 4 min 1 s
Bit rate mode                            : Constant
Bit rate                                 : 1 411.2 kb/s
Channel(s)                               : 2 channels
Channel positions                        : Front: L R
Sampling rate                            : 44.1 kHz
Bit depth                                : 16 bits
Stream size                              : 40.6 MiB (1%)
Language                                 : English
Encoded date                             : UTC 2016-06-16 19:17:04
Tagged date                              : UTC 2016-06-16 19:18:34
Download
***Hidden content cannot be quoted.***
Calvin Harris feat. Rihanna - This Is What You Came For (LPCM-Master-ProRes-1080p)



Code:
Format                                   : MPEG-4
Format profile                           : QuickTime
Codec ID                                 : qt   2005.03 (qt  )
File size                                : 4.51 GiB
Duration                                 : 4 min 1 s
Overall bit rate mode                    : Variable
Overall bit rate                         : 160 Mb/s
Encoded date                             : UTC 2016-06-16 19:17:55
Tagged date                              : UTC 2016-06-16 19:18:34
Writing library                          : Apple QuickTime 7.7.3
com.apple.quicktime.player.movie.audio.m : (Binary)

Video
ID                                       : 2
Format                                   : ProRes
Format version                           : Version 0
Format profile                           : 422 HQ
Codec ID                                 : apch
Duration                                 : 4 min 1 s
Bit rate mode                            : Variable
Bit rate                                 : 159 Mb/s
Width                                    : 1 920 pixels
Height                                   : 1 080 pixels
Display aspect ratio                     : 16:9
Frame rate mode                          : Constant
Frame rate                               : 23.976 (23976/1000) FPS
Color space                              : YUV
Chroma subsampling                       : 4:2:2
Scan type                                : Progressive
Bits/(Pixel*Frame)                       : 3.197
Stream size                              : 4.47 GiB (99%)
Writing library                          : Apple
Language                                 : English
Encoded date                             : UTC 2016-06-16 19:17:04
Tagged date                              : UTC 2016-06-16 19:18:34
Matrix coefficients                      : BT.709

Audio
ID                                       : 1
Format                                   : PCM
Format settings, Endianness              : Big
Format settings, Sign                    : Signed
Codec ID                                 : twos
Duration                                 : 4 min 1 s
Bit rate mode                            : Constant
Bit rate                                 : 1 411.2 kb/s
Channel(s)                               : 2 channels
Channel positions                        : Front: L R
Sampling rate                            : 44.1 kHz
Bit depth                                : 16 bits
Stream size                              : 40.6 MiB (1%)
Language                                 : English
Encoded date                             : UTC 2016-06-16 19:17:04
Tagged date                              : UTC 2016-06-16 19:18:34
Download
***Hidden content cannot be quoted.***
 

Rhyan00707

Member
Registered
Sep 27, 2018
85
0
6
21
Calvin Harris feat. Rihanna - This Is What You Came For (LPCM-Master-ProRes-1080p)



Code:
Format                                   : MPEG-4
Format profile                           : QuickTime
Codec ID                                 : qt   2005.03 (qt  )
File size                                : 4.51 GiB
Duration                                 : 4 min 1 s
Overall bit rate mode                    : Variable
Overall bit rate                         : 160 Mb/s
Encoded date                             : UTC 2016-06-16 19:17:55
Tagged date                              : UTC 2016-06-16 19:18:34
Writing library                          : Apple QuickTime 7.7.3
com.apple.quicktime.player.movie.audio.m : (Binary)

Video
ID                                       : 2
Format                                   : ProRes
Format version                           : Version 0
Format profile                           : 422 HQ
Codec ID                                 : apch
Duration                                 : 4 min 1 s
Bit rate mode                            : Variable
Bit rate                                 : 159 Mb/s
Width                                    : 1 920 pixels
Height                                   : 1 080 pixels
Display aspect ratio                     : 16:9
Frame rate mode                          : Constant
Frame rate                               : 23.976 (23976/1000) FPS
Color space                              : YUV
Chroma subsampling                       : 4:2:2
Scan type                                : Progressive
Bits/(Pixel*Frame)                       : 3.197
Stream size                              : 4.47 GiB (99%)
Writing library                          : Apple
Language                                 : English
Encoded date                             : UTC 2016-06-16 19:17:04
Tagged date                              : UTC 2016-06-16 19:18:34
Matrix coefficients                      : BT.709

Audio
ID                                       : 1
Format                                   : PCM
Format settings, Endianness              : Big
Format settings, Sign                    : Signed
Codec ID                                 : twos
Duration                                 : 4 min 1 s
Bit rate mode                            : Constant
Bit rate                                 : 1 411.2 kb/s
Channel(s)                               : 2 channels
Channel positions                        : Front: L R
Sampling rate                            : 44.1 kHz
Bit depth                                : 16 bits
Stream size                              : 40.6 MiB (1%)
Language                                 : English
Encoded date                             : UTC 2016-06-16 19:17:04
Tagged date                              : UTC 2016-06-16 19:18:34
Download
***Hidden content cannot be quoted.***
thanks
 

Ervin

New Member
Registered
Oct 8, 2018
8
0
1
28
Calvin Harris feat. Rihanna - This Is What You Came For (LPCM-Master-ProRes-1080p)



Code:
Format                                   : MPEG-4
Format profile                           : QuickTime
Codec ID                                 : qt   2005.03 (qt  )
File size                                : 4.51 GiB
Duration                                 : 4 min 1 s
Overall bit rate mode                    : Variable
Overall bit rate                         : 160 Mb/s
Encoded date                             : UTC 2016-06-16 19:17:55
Tagged date                              : UTC 2016-06-16 19:18:34
Writing library                          : Apple QuickTime 7.7.3
com.apple.quicktime.player.movie.audio.m : (Binary)

Video
ID                                       : 2
Format                                   : ProRes
Format version                           : Version 0
Format profile                           : 422 HQ
Codec ID                                 : apch
Duration                                 : 4 min 1 s
Bit rate mode                            : Variable
Bit rate                                 : 159 Mb/s
Width                                    : 1 920 pixels
Height                                   : 1 080 pixels
Display aspect ratio                     : 16:9
Frame rate mode                          : Constant
Frame rate                               : 23.976 (23976/1000) FPS
Color space                              : YUV
Chroma subsampling                       : 4:2:2
Scan type                                : Progressive
Bits/(Pixel*Frame)                       : 3.197
Stream size                              : 4.47 GiB (99%)
Writing library                          : Apple
Language                                 : English
Encoded date                             : UTC 2016-06-16 19:17:04
Tagged date                              : UTC 2016-06-16 19:18:34
Matrix coefficients                      : BT.709

Audio
ID                                       : 1
Format                                   : PCM
Format settings, Endianness              : Big
Format settings, Sign                    : Signed
Codec ID                                 : twos
Duration                                 : 4 min 1 s
Bit rate mode                            : Constant
Bit rate                                 : 1 411.2 kb/s
Channel(s)                               : 2 channels
Channel positions                        : Front: L R
Sampling rate                            : 44.1 kHz
Bit depth                                : 16 bits
Stream size                              : 40.6 MiB (1%)
Language                                 : English
Encoded date                             : UTC 2016-06-16 19:17:04
Tagged date                              : UTC 2016-06-16 19:18:34
Download
***Hidden content cannot be quoted.***
Gracias
 

KDHN

New Member
Registered
Dec 1, 2018
12
0
1
39
Calvin Harris feat. Rihanna - This Is What You Came For (LPCM-Master-ProRes-1080p)



Code:
Format                                   : MPEG-4
Format profile                           : QuickTime
Codec ID                                 : qt   2005.03 (qt  )
File size                                : 4.51 GiB
Duration                                 : 4 min 1 s
Overall bit rate mode                    : Variable
Overall bit rate                         : 160 Mb/s
Encoded date                             : UTC 2016-06-16 19:17:55
Tagged date                              : UTC 2016-06-16 19:18:34
Writing library                          : Apple QuickTime 7.7.3
com.apple.quicktime.player.movie.audio.m : (Binary)

Video
ID                                       : 2
Format                                   : ProRes
Format version                           : Version 0
Format profile                           : 422 HQ
Codec ID                                 : apch
Duration                                 : 4 min 1 s
Bit rate mode                            : Variable
Bit rate                                 : 159 Mb/s
Width                                    : 1 920 pixels
Height                                   : 1 080 pixels
Display aspect ratio                     : 16:9
Frame rate mode                          : Constant
Frame rate                               : 23.976 (23976/1000) FPS
Color space                              : YUV
Chroma subsampling                       : 4:2:2
Scan type                                : Progressive
Bits/(Pixel*Frame)                       : 3.197
Stream size                              : 4.47 GiB (99%)
Writing library                          : Apple
Language                                 : English
Encoded date                             : UTC 2016-06-16 19:17:04
Tagged date                              : UTC 2016-06-16 19:18:34
Matrix coefficients                      : BT.709

Audio
ID                                       : 1
Format                                   : PCM
Format settings, Endianness              : Big
Format settings, Sign                    : Signed
Codec ID                                 : twos
Duration                                 : 4 min 1 s
Bit rate mode                            : Constant
Bit rate                                 : 1 411.2 kb/s
Channel(s)                               : 2 channels
Channel positions                        : Front: L R
Sampling rate                            : 44.1 kHz
Bit depth                                : 16 bits
Stream size                              : 40.6 MiB (1%)
Language                                 : English
Encoded date                             : UTC 2016-06-16 19:17:04
Tagged date                              : UTC 2016-06-16 19:18:34
Download
***Hidden content cannot be quoted.***
thank you friend :)
 

fire fire

Member
Registered
Nov 3, 2018
88
1
8
57
Calvin Harris feat. Rihanna - This Is What You Came For (LPCM-Master-ProRes-1080p)



Code:
Format                                   : MPEG-4
Format profile                           : QuickTime
Codec ID                                 : qt   2005.03 (qt  )
File size                                : 4.51 GiB
Duration                                 : 4 min 1 s
Overall bit rate mode                    : Variable
Overall bit rate                         : 160 Mb/s
Encoded date                             : UTC 2016-06-16 19:17:55
Tagged date                              : UTC 2016-06-16 19:18:34
Writing library                          : Apple QuickTime 7.7.3
com.apple.quicktime.player.movie.audio.m : (Binary)

Video
ID                                       : 2
Format                                   : ProRes
Format version                           : Version 0
Format profile                           : 422 HQ
Codec ID                                 : apch
Duration                                 : 4 min 1 s
Bit rate mode                            : Variable
Bit rate                                 : 159 Mb/s
Width                                    : 1 920 pixels
Height                                   : 1 080 pixels
Display aspect ratio                     : 16:9
Frame rate mode                          : Constant
Frame rate                               : 23.976 (23976/1000) FPS
Color space                              : YUV
Chroma subsampling                       : 4:2:2
Scan type                                : Progressive
Bits/(Pixel*Frame)                       : 3.197
Stream size                              : 4.47 GiB (99%)
Writing library                          : Apple
Language                                 : English
Encoded date                             : UTC 2016-06-16 19:17:04
Tagged date                              : UTC 2016-06-16 19:18:34
Matrix coefficients                      : BT.709

Audio
ID                                       : 1
Format                                   : PCM
Format settings, Endianness              : Big
Format settings, Sign                    : Signed
Codec ID                                 : twos
Duration                                 : 4 min 1 s
Bit rate mode                            : Constant
Bit rate                                 : 1 411.2 kb/s
Channel(s)                               : 2 channels
Channel positions                        : Front: L R
Sampling rate                            : 44.1 kHz
Bit depth                                : 16 bits
Stream size                              : 40.6 MiB (1%)
Language                                 : English
Encoded date                             : UTC 2016-06-16 19:17:04
Tagged date                              : UTC 2016-06-16 19:18:34
Download
***Hidden content cannot be quoted.***
 

KEVIN MINGUET

Member
Registered
May 16, 2018
86
0
6
37
Calvin Harris feat. Rihanna - This Is What You Came For (LPCM-Master-ProRes-1080p)



Code:
Format                                   : MPEG-4
Format profile                           : QuickTime
Codec ID                                 : qt   2005.03 (qt  )
File size                                : 4.51 GiB
Duration                                 : 4 min 1 s
Overall bit rate mode                    : Variable
Overall bit rate                         : 160 Mb/s
Encoded date                             : UTC 2016-06-16 19:17:55
Tagged date                              : UTC 2016-06-16 19:18:34
Writing library                          : Apple QuickTime 7.7.3
com.apple.quicktime.player.movie.audio.m : (Binary)

Video
ID                                       : 2
Format                                   : ProRes
Format version                           : Version 0
Format profile                           : 422 HQ
Codec ID                                 : apch
Duration                                 : 4 min 1 s
Bit rate mode                            : Variable
Bit rate                                 : 159 Mb/s
Width                                    : 1 920 pixels
Height                                   : 1 080 pixels
Display aspect ratio                     : 16:9
Frame rate mode                          : Constant
Frame rate                               : 23.976 (23976/1000) FPS
Color space                              : YUV
Chroma subsampling                       : 4:2:2
Scan type                                : Progressive
Bits/(Pixel*Frame)                       : 3.197
Stream size                              : 4.47 GiB (99%)
Writing library                          : Apple
Language                                 : English
Encoded date                             : UTC 2016-06-16 19:17:04
Tagged date                              : UTC 2016-06-16 19:18:34
Matrix coefficients                      : BT.709

Audio
ID                                       : 1
Format                                   : PCM
Format settings, Endianness              : Big
Format settings, Sign                    : Signed
Codec ID                                 : twos
Duration                                 : 4 min 1 s
Bit rate mode                            : Constant
Bit rate                                 : 1 411.2 kb/s
Channel(s)                               : 2 channels
Channel positions                        : Front: L R
Sampling rate                            : 44.1 kHz
Bit depth                                : 16 bits
Stream size                              : 40.6 MiB (1%)
Language                                 : English
Encoded date                             : UTC 2016-06-16 19:17:04
Tagged date                              : UTC 2016-06-16 19:18:34
Download
***Hidden content cannot be quoted.***
Thanks