Master Calvin Harris - My Way (Master-1080p)-Abdi

NCURBAN

Well-Known Member
Administrative
May 25, 2016
3,347
3,620
113
Calvin Harris - My Way (Master-1080p)-Abdi


Genres: Dance
Released: Oct 28, 2016
Copyright: ℗ 2016 Sony Music Entertainment UK Limited
Code:
Format                                   : MPEG-4
Format profile                           : Base Media / Version 2
Codec ID                                 : mp42 (mp42/mp41)
File size                                : 875 MiB
Duration                                 : 4 min 8 s
Overall bit rate                         : 29.6 Mb/s
Encoded date                             : UTC 2016-11-04 08:06:37
Tagged date                              : UTC 2016-11-04 08:07:00

Video
ID                                       : 1
Format                                   : AVC
Format/Info                              : Advanced Video Codec
Format profile                           : Baseline@L4.1
Format settings, CABAC                   : No
Format settings, ReFrames                : 2 frames
Format settings, GOP                     : M=1, N=48
Codec ID                                 : avc1
Codec ID/Info                            : Advanced Video Coding
Duration                                 : 4 min 8 s
Bit rate                                 : 29.3 Mb/s
Width                                    : 1 920 pixels
Height                                   : 1 080 pixels
Display aspect ratio                     : 16:9
Frame rate mode                          : Constant
Frame rate                               : 23.976 (23976/1000) FPS
Color space                              : YUV
Chroma subsampling                       : 4:2:0
Bit depth                                : 8 bits
Scan type                                : Progressive
Bits/(Pixel*Frame)                       : 0.590
Stream size                              : 868 MiB (99%)
Language                                 : English
Encoded date                             : UTC 2016-11-04 08:06:37
Tagged date                              : UTC 2016-11-04 08:07:00
Color range                              : Limited
Color primaries                          : BT.709
Transfer characteristics                 : BT.709
Matrix coefficients                      : BT.709

Audio
ID                                       : 2
Format                                   : AAC
Format/Info                              : Advanced Audio Codec
Format profile                           : LC
Codec ID                                 : 40
Duration                                 : 4 min 8 s
Bit rate mode                            : Constant
Bit rate                                 : 256 kb/s
Channel(s)                               : 2 channels
Channel positions                        : Front: L R
Sampling rate                            : 48.0 kHz
Frame rate                               : 46.875 FPS (1024 spf)
Compression mode                         : Lossy
Stream size                              : 7.57 MiB (1%)
Language                                 : English
Encoded date                             : UTC 2016-11-04 08:06:37
Tagged date                              : UTC 2016-11-04 08:07:00
Download
You must reply before you can see the hidden data contained here.
 

AdityaNaoki27

Member
Registered
Jun 2, 2019
50
1
8
28
Calvin Harris - My Way (Master-1080p)-Abdi




Code:
Format                                   : MPEG-4
Format profile                           : Base Media / Version 2
Codec ID                                 : mp42 (mp42/mp41)
File size                                : 875 MiB
Duration                                 : 4 min 8 s
Overall bit rate                         : 29.6 Mb/s
Encoded date                             : UTC 2016-11-04 08:06:37
Tagged date                              : UTC 2016-11-04 08:07:00

Video
ID                                       : 1
Format                                   : AVC
Format/Info                              : Advanced Video Codec
Format profile                           : Baseline@L4.1
Format settings, CABAC                   : No
Format settings, ReFrames                : 2 frames
Format settings, GOP                     : M=1, N=48
Codec ID                                 : avc1
Codec ID/Info                            : Advanced Video Coding
Duration                                 : 4 min 8 s
Bit rate                                 : 29.3 Mb/s
Width                                    : 1 920 pixels
Height                                   : 1 080 pixels
Display aspect ratio                     : 16:9
Frame rate mode                          : Constant
Frame rate                               : 23.976 (23976/1000) FPS
Color space                              : YUV
Chroma subsampling                       : 4:2:0
Bit depth                                : 8 bits
Scan type                                : Progressive
Bits/(Pixel*Frame)                       : 0.590
Stream size                              : 868 MiB (99%)
Language                                 : English
Encoded date                             : UTC 2016-11-04 08:06:37
Tagged date                              : UTC 2016-11-04 08:07:00
Color range                              : Limited
Color primaries                          : BT.709
Transfer characteristics                 : BT.709
Matrix coefficients                      : BT.709

Audio
ID                                       : 2
Format                                   : AAC
Format/Info                              : Advanced Audio Codec
Format profile                           : LC
Codec ID                                 : 40
Duration                                 : 4 min 8 s
Bit rate mode                            : Constant
Bit rate                                 : 256 kb/s
Channel(s)                               : 2 channels
Channel positions                        : Front: L R
Sampling rate                            : 48.0 kHz
Frame rate                               : 46.875 FPS (1024 spf)
Compression mode                         : Lossy
Stream size                              : 7.57 MiB (1%)
Language                                 : English
Encoded date                             : UTC 2016-11-04 08:06:37
Tagged date                              : UTC 2016-11-04 08:07:00
Download
***Hidden content cannot be quoted.***
Thanks
 

Raj

Member
Registered
Jul 3, 2019
67
0
6
29
Calvin Harris - My Way (Master-1080p)-Abdi




Code:
Format                                   : MPEG-4
Format profile                           : Base Media / Version 2
Codec ID                                 : mp42 (mp42/mp41)
File size                                : 875 MiB
Duration                                 : 4 min 8 s
Overall bit rate                         : 29.6 Mb/s
Encoded date                             : UTC 2016-11-04 08:06:37
Tagged date                              : UTC 2016-11-04 08:07:00

Video
ID                                       : 1
Format                                   : AVC
Format/Info                              : Advanced Video Codec
Format profile                           : Baseline@L4.1
Format settings, CABAC                   : No
Format settings, ReFrames                : 2 frames
Format settings, GOP                     : M=1, N=48
Codec ID                                 : avc1
Codec ID/Info                            : Advanced Video Coding
Duration                                 : 4 min 8 s
Bit rate                                 : 29.3 Mb/s
Width                                    : 1 920 pixels
Height                                   : 1 080 pixels
Display aspect ratio                     : 16:9
Frame rate mode                          : Constant
Frame rate                               : 23.976 (23976/1000) FPS
Color space                              : YUV
Chroma subsampling                       : 4:2:0
Bit depth                                : 8 bits
Scan type                                : Progressive
Bits/(Pixel*Frame)                       : 0.590
Stream size                              : 868 MiB (99%)
Language                                 : English
Encoded date                             : UTC 2016-11-04 08:06:37
Tagged date                              : UTC 2016-11-04 08:07:00
Color range                              : Limited
Color primaries                          : BT.709
Transfer characteristics                 : BT.709
Matrix coefficients                      : BT.709

Audio
ID                                       : 2
Format                                   : AAC
Format/Info                              : Advanced Audio Codec
Format profile                           : LC
Codec ID                                 : 40
Duration                                 : 4 min 8 s
Bit rate mode                            : Constant
Bit rate                                 : 256 kb/s
Channel(s)                               : 2 channels
Channel positions                        : Front: L R
Sampling rate                            : 48.0 kHz
Frame rate                               : 46.875 FPS (1024 spf)
Compression mode                         : Lossy
Stream size                              : 7.57 MiB (1%)
Language                                 : English
Encoded date                             : UTC 2016-11-04 08:06:37
Tagged date                              : UTC 2016-11-04 08:07:00
Download
***Hidden content cannot be quoted.***
Thank you very much!
 

vuivlu

Member
Registered
Dec 24, 2019
32
0
6
20
Calvin Harris - My Way (Master-1080p)-Abdi




Code:
Format                                   : MPEG-4
Format profile                           : Base Media / Version 2
Codec ID                                 : mp42 (mp42/mp41)
File size                                : 875 MiB
Duration                                 : 4 min 8 s
Overall bit rate                         : 29.6 Mb/s
Encoded date                             : UTC 2016-11-04 08:06:37
Tagged date                              : UTC 2016-11-04 08:07:00

Video
ID                                       : 1
Format                                   : AVC
Format/Info                              : Advanced Video Codec
Format profile                           : Baseline@L4.1
Format settings, CABAC                   : No
Format settings, ReFrames                : 2 frames
Format settings, GOP                     : M=1, N=48
Codec ID                                 : avc1
Codec ID/Info                            : Advanced Video Coding
Duration                                 : 4 min 8 s
Bit rate                                 : 29.3 Mb/s
Width                                    : 1 920 pixels
Height                                   : 1 080 pixels
Display aspect ratio                     : 16:9
Frame rate mode                          : Constant
Frame rate                               : 23.976 (23976/1000) FPS
Color space                              : YUV
Chroma subsampling                       : 4:2:0
Bit depth                                : 8 bits
Scan type                                : Progressive
Bits/(Pixel*Frame)                       : 0.590
Stream size                              : 868 MiB (99%)
Language                                 : English
Encoded date                             : UTC 2016-11-04 08:06:37
Tagged date                              : UTC 2016-11-04 08:07:00
Color range                              : Limited
Color primaries                          : BT.709
Transfer characteristics                 : BT.709
Matrix coefficients                      : BT.709

Audio
ID                                       : 2
Format                                   : AAC
Format/Info                              : Advanced Audio Codec
Format profile                           : LC
Codec ID                                 : 40
Duration                                 : 4 min 8 s
Bit rate mode                            : Constant
Bit rate                                 : 256 kb/s
Channel(s)                               : 2 channels
Channel positions                        : Front: L R
Sampling rate                            : 48.0 kHz
Frame rate                               : 46.875 FPS (1024 spf)
Compression mode                         : Lossy
Stream size                              : 7.57 MiB (1%)
Language                                 : English
Encoded date                             : UTC 2016-11-04 08:06:37
Tagged date                              : UTC 2016-11-04 08:07:00
Download
***Hidden content cannot be quoted.***
Thanks!
 

Dave Sahani

Member
Registered
Sep 2, 2019
167
1
18
22
Calvin Harris - My Way (Master-1080p)-Abdi




Code:
Format                                   : MPEG-4
Format profile                           : Base Media / Version 2
Codec ID                                 : mp42 (mp42/mp41)
File size                                : 875 MiB
Duration                                 : 4 min 8 s
Overall bit rate                         : 29.6 Mb/s
Encoded date                             : UTC 2016-11-04 08:06:37
Tagged date                              : UTC 2016-11-04 08:07:00

Video
ID                                       : 1
Format                                   : AVC
Format/Info                              : Advanced Video Codec
Format profile                           : Baseline@L4.1
Format settings, CABAC                   : No
Format settings, ReFrames                : 2 frames
Format settings, GOP                     : M=1, N=48
Codec ID                                 : avc1
Codec ID/Info                            : Advanced Video Coding
Duration                                 : 4 min 8 s
Bit rate                                 : 29.3 Mb/s
Width                                    : 1 920 pixels
Height                                   : 1 080 pixels
Display aspect ratio                     : 16:9
Frame rate mode                          : Constant
Frame rate                               : 23.976 (23976/1000) FPS
Color space                              : YUV
Chroma subsampling                       : 4:2:0
Bit depth                                : 8 bits
Scan type                                : Progressive
Bits/(Pixel*Frame)                       : 0.590
Stream size                              : 868 MiB (99%)
Language                                 : English
Encoded date                             : UTC 2016-11-04 08:06:37
Tagged date                              : UTC 2016-11-04 08:07:00
Color range                              : Limited
Color primaries                          : BT.709
Transfer characteristics                 : BT.709
Matrix coefficients                      : BT.709

Audio
ID                                       : 2
Format                                   : AAC
Format/Info                              : Advanced Audio Codec
Format profile                           : LC
Codec ID                                 : 40
Duration                                 : 4 min 8 s
Bit rate mode                            : Constant
Bit rate                                 : 256 kb/s
Channel(s)                               : 2 channels
Channel positions                        : Front: L R
Sampling rate                            : 48.0 kHz
Frame rate                               : 46.875 FPS (1024 spf)
Compression mode                         : Lossy
Stream size                              : 7.57 MiB (1%)
Language                                 : English
Encoded date                             : UTC 2016-11-04 08:06:37
Tagged date                              : UTC 2016-11-04 08:07:00
Download
***Hidden content cannot be quoted.***
 

mmfm77

New Member
Registered
Dec 20, 2018
7
1
3
29
Calvin Harris - My Way (Master-1080p)-Abdi




Code:
Format                                   : MPEG-4
Format profile                           : Base Media / Version 2
Codec ID                                 : mp42 (mp42/mp41)
File size                                : 875 MiB
Duration                                 : 4 min 8 s
Overall bit rate                         : 29.6 Mb/s
Encoded date                             : UTC 2016-11-04 08:06:37
Tagged date                              : UTC 2016-11-04 08:07:00

Video
ID                                       : 1
Format                                   : AVC
Format/Info                              : Advanced Video Codec
Format profile                           : Baseline@L4.1
Format settings, CABAC                   : No
Format settings, ReFrames                : 2 frames
Format settings, GOP                     : M=1, N=48
Codec ID                                 : avc1
Codec ID/Info                            : Advanced Video Coding
Duration                                 : 4 min 8 s
Bit rate                                 : 29.3 Mb/s
Width                                    : 1 920 pixels
Height                                   : 1 080 pixels
Display aspect ratio                     : 16:9
Frame rate mode                          : Constant
Frame rate                               : 23.976 (23976/1000) FPS
Color space                              : YUV
Chroma subsampling                       : 4:2:0
Bit depth                                : 8 bits
Scan type                                : Progressive
Bits/(Pixel*Frame)                       : 0.590
Stream size                              : 868 MiB (99%)
Language                                 : English
Encoded date                             : UTC 2016-11-04 08:06:37
Tagged date                              : UTC 2016-11-04 08:07:00
Color range                              : Limited
Color primaries                          : BT.709
Transfer characteristics                 : BT.709
Matrix coefficients                      : BT.709

Audio
ID                                       : 2
Format                                   : AAC
Format/Info                              : Advanced Audio Codec
Format profile                           : LC
Codec ID                                 : 40
Duration                                 : 4 min 8 s
Bit rate mode                            : Constant
Bit rate                                 : 256 kb/s
Channel(s)                               : 2 channels
Channel positions                        : Front: L R
Sampling rate                            : 48.0 kHz
Frame rate                               : 46.875 FPS (1024 spf)
Compression mode                         : Lossy
Stream size                              : 7.57 MiB (1%)
Language                                 : English
Encoded date                             : UTC 2016-11-04 08:06:37
Tagged date                              : UTC 2016-11-04 08:07:00
Download
***Hidden content cannot be quoted.***
tttttttttttttttnnnnnnnnnnnnnnnnnnnnnnnnnxxxxxxxxx