HDTV Catfish and the Bottlemen - Lollapalooza Brazil 2017 (HDTV-1080i)-HDMania

NCURBAN

Well-Known Member
Administrative
May 25, 2016
3,360
4,226
113
Catfish and the Bottlemen - Lollapalooza Brazil 2017 (HDTV-1080i)-HDMania


Gener: Alternative, Rock,
Festival: Lollapalooza Brazil
Live At: Autódromo de Interlagos, São Paulo, Brazil
Date: Mat 26, 2017
Setlist:
  1. Homesick
  2. Kathleen
  3. Soundcheck
  4. Pacifier
  5. Anything
  6. Postpone
  7. Twice
  8. 7
  9. Cocoon
  10. Tyrants
Code:
Format                                   : MPEG-TS
File size                                : 5.34 GiB
Duration                                 : 56 min 27 s
Overall bit rate mode                    : Variable
Overall bit rate                         : 13.5 Mb/s

Video
ID                                       : 1328 (0x530)
Menu ID                                  : 1336 (0x538)
Format                                   : AVC
Format/Info                              : Advanced Video Codec
Format profile                           : High@L4
Format settings, CABAC                   : Yes
Format settings, ReFrames                : 4 frames
Codec ID                                 : 27
Duration                                 : 56 min 30 s
Bit rate                                 : 12.5 Mb/s
Width                                    : 1 920 pixels
Height                                   : 1 080 pixels
Display aspect ratio                     : 16:9
Frame rate                               : 29.970 (30000/1001) FPS
Color space                              : YUV
Chroma subsampling                       : 4:2:0
Bit depth                                : 8 bits
Scan type                                : MBAFF
Scan type, store method                  : Interleaved fields
Scan order                               : Top Field First
Bits/(Pixel*Frame)                       : 0.201
Stream size                              : 4.93 GiB (92%)

Audio
ID                                       : 1329 (0x531)
Menu ID                                  : 1336 (0x538)
Format                                   : AC-3
Format/Info                              : Audio Coding 3
Format settings, Endianness              : Big
Codec ID                                 : 129
Duration                                 : 56 min 30 s
Bit rate mode                            : Constant
Bit rate                                 : 384 kb/s
Channel(s)                               : 6 channels
Channel positions                        : Front: L C R, Side: L R, LFE
Sampling rate                            : 48.0 kHz
Frame rate                               : 31.250 FPS (1536 spf)
Bit depth                                : 16 bits
Compression mode                         : Lossy
Stream size                              : 155 MiB (3%)
Language                                 : English
Service kind                             : Complete Main
Download
You must reply before you can see the hidden data contained here.