Master Charlie Puth - Dangerously (Master-1080p)

NCURBAN

Well-Known Member
Administrative
May 25, 2016
3,347
3,595
113
Charlie Puth - Dangerously (Master-1080p)


Genres: Pop
Released: Nov 02, 2016
Copyright: ℗ 2015 Artist Partner Group, Inc
Code:
Format                                   : MPEG-TS
File size                                : 978 MiB
Duration                                 : 3 min 17 s
Start time                               : UTC 2016-11-09 12:36:58
Overall bit rate mode                    : Constant
Overall bit rate                         : 41.5 Mb/s

Video
ID                                       : 17 (0x11)
Menu ID                                  : 1 (0x1)
Format                                   : MPEG Video
Format version                           : Version 2
Format profile                           : Main@High
Format settings, BVOP                    : Yes
Format settings, Matrix                  : Default
Format settings, GOP                     : Variable
Codec ID                                 : 2
Duration                                 : 3 min 17 s
Bit rate mode                            : Constant
Bit rate                                 : 39.0 Mb/s
Maximum bit rate                         : 40.0 Mb/s
Width                                    : 1 920 pixels
Height                                   : 1 080 pixels
Display aspect ratio                     : 16:9
Frame rate                               : 25.000 FPS
Color space                              : YUV
Chroma subsampling                       : 4:2:0
Bit depth                                : 8 bits
Scan type                                : Progressive
Compression mode                         : Lossy
Bits/(Pixel*Frame)                       : 0.753
Time code of first frame                 : 00:00:00:00
Time code source                         : Group of pictures header
GOP, Open/Closed                         : Open
GOP, Open/Closed of first frame          : Closed
Stream size                              : 919 MiB (94%)

Audio
ID                                       : 20 (0x14)
Menu ID                                  : 1 (0x1)
Format                                   : MPEG Audio
Format version                           : Version 1
Format profile                           : Layer 2
Codec ID                                 : 3
Duration                                 : 3 min 17 s
Bit rate mode                            : Constant
Bit rate                                 : 384 kb/s
Channel(s)                               : 2 channels
Sampling rate                            : 48.0 kHz
Compression mode                         : Lossy
Stream size                              : 9.05 MiB (1%)
Download
You must reply before you can see the hidden data contained here.
 
  • Like
Reactions: kimpoy13

kimpoy13

Member
Registered
Feb 4, 2019
113
2
18
26
Charlie Puth - Dangerously (Master-1080p)




Code:
Format                                   : MPEG-TS
File size                                : 978 MiB
Duration                                 : 3 min 17 s
Start time                               : UTC 2016-11-09 12:36:58
Overall bit rate mode                    : Constant
Overall bit rate                         : 41.5 Mb/s

Video
ID                                       : 17 (0x11)
Menu ID                                  : 1 (0x1)
Format                                   : MPEG Video
Format version                           : Version 2
Format profile                           : Main@High
Format settings, BVOP                    : Yes
Format settings, Matrix                  : Default
Format settings, GOP                     : Variable
Codec ID                                 : 2
Duration                                 : 3 min 17 s
Bit rate mode                            : Constant
Bit rate                                 : 39.0 Mb/s
Maximum bit rate                         : 40.0 Mb/s
Width                                    : 1 920 pixels
Height                                   : 1 080 pixels
Display aspect ratio                     : 16:9
Frame rate                               : 25.000 FPS
Color space                              : YUV
Chroma subsampling                       : 4:2:0
Bit depth                                : 8 bits
Scan type                                : Progressive
Compression mode                         : Lossy
Bits/(Pixel*Frame)                       : 0.753
Time code of first frame                 : 00:00:00:00
Time code source                         : Group of pictures header
GOP, Open/Closed                         : Open
GOP, Open/Closed of first frame          : Closed
Stream size                              : 919 MiB (94%)

Audio
ID                                       : 20 (0x14)
Menu ID                                  : 1 (0x1)
Format                                   : MPEG Audio
Format version                           : Version 1
Format profile                           : Layer 2
Codec ID                                 : 3
Duration                                 : 3 min 17 s
Bit rate mode                            : Constant
Bit rate                                 : 384 kb/s
Channel(s)                               : 2 channels
Sampling rate                            : 48.0 kHz
Compression mode                         : Lossy
Stream size                              : 9.05 MiB (1%)
Download
***Hidden content cannot be quoted.***[/QUOTE]
 

Raj

Member
Registered
Jul 3, 2019
67
0
6
29
Charlie Puth - Dangerously (Master-1080p)




Code:
Format                                   : MPEG-TS
File size                                : 978 MiB
Duration                                 : 3 min 17 s
Start time                               : UTC 2016-11-09 12:36:58
Overall bit rate mode                    : Constant
Overall bit rate                         : 41.5 Mb/s

Video
ID                                       : 17 (0x11)
Menu ID                                  : 1 (0x1)
Format                                   : MPEG Video
Format version                           : Version 2
Format profile                           : Main@High
Format settings, BVOP                    : Yes
Format settings, Matrix                  : Default
Format settings, GOP                     : Variable
Codec ID                                 : 2
Duration                                 : 3 min 17 s
Bit rate mode                            : Constant
Bit rate                                 : 39.0 Mb/s
Maximum bit rate                         : 40.0 Mb/s
Width                                    : 1 920 pixels
Height                                   : 1 080 pixels
Display aspect ratio                     : 16:9
Frame rate                               : 25.000 FPS
Color space                              : YUV
Chroma subsampling                       : 4:2:0
Bit depth                                : 8 bits
Scan type                                : Progressive
Compression mode                         : Lossy
Bits/(Pixel*Frame)                       : 0.753
Time code of first frame                 : 00:00:00:00
Time code source                         : Group of pictures header
GOP, Open/Closed                         : Open
GOP, Open/Closed of first frame          : Closed
Stream size                              : 919 MiB (94%)

Audio
ID                                       : 20 (0x14)
Menu ID                                  : 1 (0x1)
Format                                   : MPEG Audio
Format version                           : Version 1
Format profile                           : Layer 2
Codec ID                                 : 3
Duration                                 : 3 min 17 s
Bit rate mode                            : Constant
Bit rate                                 : 384 kb/s
Channel(s)                               : 2 channels
Sampling rate                            : 48.0 kHz
Compression mode                         : Lossy
Stream size                              : 9.05 MiB (1%)
Download
***Hidden content cannot be quoted.***
Thank you very much!
 

Dave Sahani

Member
Registered
Sep 2, 2019
167
1
18
22
Charlie Puth - Dangerously (Master-1080p)




Code:
Format                                   : MPEG-TS
File size                                : 978 MiB
Duration                                 : 3 min 17 s
Start time                               : UTC 2016-11-09 12:36:58
Overall bit rate mode                    : Constant
Overall bit rate                         : 41.5 Mb/s

Video
ID                                       : 17 (0x11)
Menu ID                                  : 1 (0x1)
Format                                   : MPEG Video
Format version                           : Version 2
Format profile                           : Main@High
Format settings, BVOP                    : Yes
Format settings, Matrix                  : Default
Format settings, GOP                     : Variable
Codec ID                                 : 2
Duration                                 : 3 min 17 s
Bit rate mode                            : Constant
Bit rate                                 : 39.0 Mb/s
Maximum bit rate                         : 40.0 Mb/s
Width                                    : 1 920 pixels
Height                                   : 1 080 pixels
Display aspect ratio                     : 16:9
Frame rate                               : 25.000 FPS
Color space                              : YUV
Chroma subsampling                       : 4:2:0
Bit depth                                : 8 bits
Scan type                                : Progressive
Compression mode                         : Lossy
Bits/(Pixel*Frame)                       : 0.753
Time code of first frame                 : 00:00:00:00
Time code source                         : Group of pictures header
GOP, Open/Closed                         : Open
GOP, Open/Closed of first frame          : Closed
Stream size                              : 919 MiB (94%)

Audio
ID                                       : 20 (0x14)
Menu ID                                  : 1 (0x1)
Format                                   : MPEG Audio
Format version                           : Version 1
Format profile                           : Layer 2
Codec ID                                 : 3
Duration                                 : 3 min 17 s
Bit rate mode                            : Constant
Bit rate                                 : 384 kb/s
Channel(s)                               : 2 channels
Sampling rate                            : 48.0 kHz
Compression mode                         : Lossy
Stream size                              : 9.05 MiB (1%)
Download
***Hidden content cannot be quoted.***