Master Christina Aguilera - Not Myself Tonight (Master-720p)

NCURBAN

Well-Known Member
Administrative
May 25, 2016
3,360
4,184
113
Christina Aguilera - Not Myself Tonight (Master-720p)



Geners: Pop
Relesead: Apr 28, 2010​

Code:
Format                                   : MPEG-4
Format profile                           : Base Media
Codec ID                                 : isom
File size                                : 143 MiB
Duration                                 : 3mn 6s
Overall bit rate mode                    : Variable
Overall bit rate                         : 6 440 Kbps
Encoded date                             : UTC 2013-10-21 19:54:27
Tagged date                              : UTC 2013-10-21 19:54:27

Video
ID                                       : 1
Format                                   : AVC
Format/Info                              : Advanced Video Codec
Format profile                           : High@L4.1
Format settings, CABAC                   : Yes
Format settings, ReFrames                : 9 frames
Codec ID                                 : avc1
Codec ID/Info                            : Advanced Video Coding
Duration                                 : 3mn 6s
Bit rate                                 : 6 000 Kbps
Maximum bit rate                         : 17.2 Mbps
Width                                    : 1 280 pixels
Height                                   : 720 pixels
Display aspect ratio                     : 16:9
Frame rate mode                          : Constant
Frame rate                               : 29.970 fps
Color space                              : YUV
Chroma subsampling                       : 4:2:0
Bit depth                                : 8 bits
Scan type                                : Progressive
Bits/(Pixel*Frame)                       : 0.217
Stream size                              : 134 MiB (93%)
Writing library                          : x264 core 133 r2334 a3ac64b
Encoding settings                        : cabac=1 / ref=9 / deblock=1:-3:-3 / analyse=0x3:0x133 / me=umh / subme=10 / psy=1 / psy_rd=1.00:0.00 / mixed_ref=1 / me_range=32 / chroma_me=1 / trellis=2 / 8x8dct=1 / cqm=0 / deadzone=21,11 / fast_pskip=0 / chroma_qp_offset=-2 / threads=6 / lookahead_threads=1 / sliced_threads=0 / nr=0 / decimate=0 / interlaced=0 / bluray_compat=0 / constrained_intra=0 / bframes=16 / b_pyramid=2 / b_adapt=2 / b_bias=0 / direct=3 / weightb=1 / open_gop=0 / weightp=2 / keyint=300 / keyint_min=29 / scenecut=40 / intra_refresh=0 / rc_lookahead=60 / rc=2pass / mbtree=1 / bitrate=6000 / ratetol=1.0 / qcomp=0.60 / qpmin=0 / qpmax=69 / qpstep=4 / cplxblur=20.0 / qblur=0.5 / vbv_maxrate=62500 / vbv_bufsize=78125 / nal_hrd=none / ip_ratio=1.40 / aq=2:1.50
Encoded date                             : UTC 2013-10-21 18:16:10
Tagged date                              : UTC 2013-10-21 19:54:27

Audio
ID                                       : 2
Format                                   : AAC
Format/Info                              : Advanced Audio Codec
Format profile                           : LC
Codec ID                                 : 40
Duration                                 : 3mn 6s
Bit rate mode                            : Variable
Bit rate                                 : 434 Kbps
Maximum bit rate                         : 454 Kbps
Channel(s)                               : 2 channels
Channel positions                        : Front: L R
Sampling rate                            : 48.0 KHz
Compression mode                         : Lossy
Stream size                              : 9.67 MiB (7%)
Encoded date                             : UTC 2013-10-21 19:53:48
Tagged date                              : UTC 2013-10-21 19:54:27

Download
You must reply before you can see the hidden data contained here.
 
  • Like
Reactions: kimpoy13

Ticker

New Member
Registered
Nov 27, 2018
17
0
1
54
i've been looking for a better quality version of this video, thanks
 

miamia

Member
Registered
Jan 23, 2019
54
0
6
19
Christina Aguilera - Not Myself Tonight (Master-720p)



Geners: Pop
Relesead: Apr 28, 2010​

Code:
Format                                   : MPEG-4
Format profile                           : Base Media
Codec ID                                 : isom
File size                                : 143 MiB
Duration                                 : 3mn 6s
Overall bit rate mode                    : Variable
Overall bit rate                         : 6 440 Kbps
Encoded date                             : UTC 2013-10-21 19:54:27
Tagged date                              : UTC 2013-10-21 19:54:27

Video
ID                                       : 1
Format                                   : AVC
Format/Info                              : Advanced Video Codec
Format profile                           : High@L4.1
Format settings, CABAC                   : Yes
Format settings, ReFrames                : 9 frames
Codec ID                                 : avc1
Codec ID/Info                            : Advanced Video Coding
Duration                                 : 3mn 6s
Bit rate                                 : 6 000 Kbps
Maximum bit rate                         : 17.2 Mbps
Width                                    : 1 280 pixels
Height                                   : 720 pixels
Display aspect ratio                     : 16:9
Frame rate mode                          : Constant
Frame rate                               : 29.970 fps
Color space                              : YUV
Chroma subsampling                       : 4:2:0
Bit depth                                : 8 bits
Scan type                                : Progressive
Bits/(Pixel*Frame)                       : 0.217
Stream size                              : 134 MiB (93%)
Writing library                          : x264 core 133 r2334 a3ac64b
Encoding settings                        : cabac=1 / ref=9 / deblock=1:-3:-3 / analyse=0x3:0x133 / me=umh / subme=10 / psy=1 / psy_rd=1.00:0.00 / mixed_ref=1 / me_range=32 / chroma_me=1 / trellis=2 / 8x8dct=1 / cqm=0 / deadzone=21,11 / fast_pskip=0 / chroma_qp_offset=-2 / threads=6 / lookahead_threads=1 / sliced_threads=0 / nr=0 / decimate=0 / interlaced=0 / bluray_compat=0 / constrained_intra=0 / bframes=16 / b_pyramid=2 / b_adapt=2 / b_bias=0 / direct=3 / weightb=1 / open_gop=0 / weightp=2 / keyint=300 / keyint_min=29 / scenecut=40 / intra_refresh=0 / rc_lookahead=60 / rc=2pass / mbtree=1 / bitrate=6000 / ratetol=1.0 / qcomp=0.60 / qpmin=0 / qpmax=69 / qpstep=4 / cplxblur=20.0 / qblur=0.5 / vbv_maxrate=62500 / vbv_bufsize=78125 / nal_hrd=none / ip_ratio=1.40 / aq=2:1.50
Encoded date                             : UTC 2013-10-21 18:16:10
Tagged date                              : UTC 2013-10-21 19:54:27

Audio
ID                                       : 2
Format                                   : AAC
Format/Info                              : Advanced Audio Codec
Format profile                           : LC
Codec ID                                 : 40
Duration                                 : 3mn 6s
Bit rate mode                            : Variable
Bit rate                                 : 434 Kbps
Maximum bit rate                         : 454 Kbps
Channel(s)                               : 2 channels
Channel positions                        : Front: L R
Sampling rate                            : 48.0 KHz
Compression mode                         : Lossy
Stream size                              : 9.67 MiB (7%)
Encoded date                             : UTC 2013-10-21 19:53:48
Tagged date                              : UTC 2013-10-21 19:54:27

Download
***Hidden content cannot be quoted.***
thnaks
 

lc2xi

New Member
Registered
Feb 10, 2019
6
0
1
thank you for Christina Aguilera - Not Myself Tonight (Master-720p)
 

kimpoy13

Member
Registered
Feb 4, 2019
114
2
18
27
Christina Aguilera - Not Myself Tonight (Master-720p)



Geners: Pop
Relesead: Apr 28, 2010​

Code:
Format                                   : MPEG-4
Format profile                           : Base Media
Codec ID                                 : isom
File size                                : 143 MiB
Duration                                 : 3mn 6s
Overall bit rate mode                    : Variable
Overall bit rate                         : 6 440 Kbps
Encoded date                             : UTC 2013-10-21 19:54:27
Tagged date                              : UTC 2013-10-21 19:54:27

Video
ID                                       : 1
Format                                   : AVC
Format/Info                              : Advanced Video Codec
Format profile                           : High@L4.1
Format settings, CABAC                   : Yes
Format settings, ReFrames                : 9 frames
Codec ID                                 : avc1
Codec ID/Info                            : Advanced Video Coding
Duration                                 : 3mn 6s
Bit rate                                 : 6 000 Kbps
Maximum bit rate                         : 17.2 Mbps
Width                                    : 1 280 pixels
Height                                   : 720 pixels
Display aspect ratio                     : 16:9
Frame rate mode                          : Constant
Frame rate                               : 29.970 fps
Color space                              : YUV
Chroma subsampling                       : 4:2:0
Bit depth                                : 8 bits
Scan type                                : Progressive
Bits/(Pixel*Frame)                       : 0.217
Stream size                              : 134 MiB (93%)
Writing library                          : x264 core 133 r2334 a3ac64b
Encoding settings                        : cabac=1 / ref=9 / deblock=1:-3:-3 / analyse=0x3:0x133 / me=umh / subme=10 / psy=1 / psy_rd=1.00:0.00 / mixed_ref=1 / me_range=32 / chroma_me=1 / trellis=2 / 8x8dct=1 / cqm=0 / deadzone=21,11 / fast_pskip=0 / chroma_qp_offset=-2 / threads=6 / lookahead_threads=1 / sliced_threads=0 / nr=0 / decimate=0 / interlaced=0 / bluray_compat=0 / constrained_intra=0 / bframes=16 / b_pyramid=2 / b_adapt=2 / b_bias=0 / direct=3 / weightb=1 / open_gop=0 / weightp=2 / keyint=300 / keyint_min=29 / scenecut=40 / intra_refresh=0 / rc_lookahead=60 / rc=2pass / mbtree=1 / bitrate=6000 / ratetol=1.0 / qcomp=0.60 / qpmin=0 / qpmax=69 / qpstep=4 / cplxblur=20.0 / qblur=0.5 / vbv_maxrate=62500 / vbv_bufsize=78125 / nal_hrd=none / ip_ratio=1.40 / aq=2:1.50
Encoded date                             : UTC 2013-10-21 18:16:10
Tagged date                              : UTC 2013-10-21 19:54:27

Audio
ID                                       : 2
Format                                   : AAC
Format/Info                              : Advanced Audio Codec
Format profile                           : LC
Codec ID                                 : 40
Duration                                 : 3mn 6s
Bit rate mode                            : Variable
Bit rate                                 : 434 Kbps
Maximum bit rate                         : 454 Kbps
Channel(s)                               : 2 channels
Channel positions                        : Front: L R
Sampling rate                            : 48.0 KHz
Compression mode                         : Lossy
Stream size                              : 9.67 MiB (7%)
Encoded date                             : UTC 2013-10-21 19:53:48
Tagged date                              : UTC 2013-10-21 19:54:27

Download
***Hidden content cannot be quoted.***[/QUOTE]
 

plwww

New Member
Registered
Dec 14, 2018
5
0
1
27
thank you for Christina Aguilera - Not Myself Tonight (Master-720p)
 

Buti

Member
Registered
Aug 16, 2019
104
0
16
32
Thanks[HIDE-REPLY][/HIDE-REPLY]
 

babestv

New Member
Registered
May 2, 2020
27
0
1
27
Christina Aguilera - Not Myself Tonight (Master-720p)



Geners: Pop
Relesead: Apr 28, 2010​

Code:
Format                                   : MPEG-4
Format profile                           : Base Media
Codec ID                                 : isom
File size                                : 143 MiB
Duration                                 : 3mn 6s
Overall bit rate mode                    : Variable
Overall bit rate                         : 6 440 Kbps
Encoded date                             : UTC 2013-10-21 19:54:27
Tagged date                              : UTC 2013-10-21 19:54:27

Video
ID                                       : 1
Format                                   : AVC
Format/Info                              : Advanced Video Codec
Format profile                           : High@L4.1
Format settings, CABAC                   : Yes
Format settings, ReFrames                : 9 frames
Codec ID                                 : avc1
Codec ID/Info                            : Advanced Video Coding
Duration                                 : 3mn 6s
Bit rate                                 : 6 000 Kbps
Maximum bit rate                         : 17.2 Mbps
Width                                    : 1 280 pixels
Height                                   : 720 pixels
Display aspect ratio                     : 16:9
Frame rate mode                          : Constant
Frame rate                               : 29.970 fps
Color space                              : YUV
Chroma subsampling                       : 4:2:0
Bit depth                                : 8 bits
Scan type                                : Progressive
Bits/(Pixel*Frame)                       : 0.217
Stream size                              : 134 MiB (93%)
Writing library                          : x264 core 133 r2334 a3ac64b
Encoding settings                        : cabac=1 / ref=9 / deblock=1:-3:-3 / analyse=0x3:0x133 / me=umh / subme=10 / psy=1 / psy_rd=1.00:0.00 / mixed_ref=1 / me_range=32 / chroma_me=1 / trellis=2 / 8x8dct=1 / cqm=0 / deadzone=21,11 / fast_pskip=0 / chroma_qp_offset=-2 / threads=6 / lookahead_threads=1 / sliced_threads=0 / nr=0 / decimate=0 / interlaced=0 / bluray_compat=0 / constrained_intra=0 / bframes=16 / b_pyramid=2 / b_adapt=2 / b_bias=0 / direct=3 / weightb=1 / open_gop=0 / weightp=2 / keyint=300 / keyint_min=29 / scenecut=40 / intra_refresh=0 / rc_lookahead=60 / rc=2pass / mbtree=1 / bitrate=6000 / ratetol=1.0 / qcomp=0.60 / qpmin=0 / qpmax=69 / qpstep=4 / cplxblur=20.0 / qblur=0.5 / vbv_maxrate=62500 / vbv_bufsize=78125 / nal_hrd=none / ip_ratio=1.40 / aq=2:1.50
Encoded date                             : UTC 2013-10-21 18:16:10
Tagged date                              : UTC 2013-10-21 19:54:27

Audio
ID                                       : 2
Format                                   : AAC
Format/Info                              : Advanced Audio Codec
Format profile                           : LC
Codec ID                                 : 40
Duration                                 : 3mn 6s
Bit rate mode                            : Variable
Bit rate                                 : 434 Kbps
Maximum bit rate                         : 454 Kbps
Channel(s)                               : 2 channels
Channel positions                        : Front: L R
Sampling rate                            : 48.0 KHz
Compression mode                         : Lossy
Stream size                              : 9.67 MiB (7%)
Encoded date                             : UTC 2013-10-21 19:53:48
Tagged date                              : UTC 2013-10-21 19:54:27

Download
***Hidden content cannot be quoted.***
super
 

Behic KISA

Member
Registered
Aug 1, 2019
74
0
6
33
thank u so muchhhh.........thank u so muchhhh.........thank u so muchhhh.........thank u so muchhhh.........thank u so muchhhh.........thank u so muchhhh.........thank u so muchhhh.........