HDTV Ciara - Billie Jean, Got Me Good (VH1 Divas 2012) [HDTV-1080i]-TrollHD

NCURBAN

Well-Known Member
Administrative
May 25, 2016
3,358
4,092
113
Ciara - Billie Jean, Got Me Good (VH1 Divas 2012) [HDTV-1080i]-TrollHD


Gener: Pop
At: VH1 Divas
Date: December, 2012
Setlist
  1. Alarm
  2. This Girl
Code:
Format                                   : MPEG-TS
File size                                : 608 MiB
Duration                                 : 5 min 6 s
Overall bit rate mode                    : Variable
Overall bit rate                         : 16.6 Mb/s
Law rating                               : None

Video
ID                                       : 524 (0x20C)
Menu ID                                  : 1 (0x1)
Format                                   : MPEG Video
Format version                           : Version 2
Format profile                           : Main@High
Format settings, BVOP                    : Yes
Format settings, Matrix                  : Custom
Format settings, GOP                     : M=3, N=15
Format settings, picture structure       : Frame
Codec ID                                 : 2
Duration                                 : 5 min 6 s
Bit rate mode                            : Variable
Bit rate                                 : 15.4 Mb/s
Maximum bit rate                         : 18.0 Mb/s
Width                                    : 1 920 pixels
Height                                   : 1 080 pixels
Display aspect ratio                     : 16:9
Frame rate                               : 29.970 (30000/1001) FPS
Color space                              : YUV
Chroma subsampling                       : 4:2:0
Bit depth                                : 8 bits
Scan type                                : Interlaced
Scan order                               : Top Field First
Compression mode                         : Lossy
Bits/(Pixel*Frame)                       : 0.248
Time code of first frame                 : 00:00:00;00
Time code source                         : Group of pictures header
GOP, Open/Closed                         : Open
GOP, Open/Closed of first frame          : Closed
Stream size                              : 563 MiB (93%)

Audio
ID                                       : 523 (0x20B)
Menu ID                                  : 1 (0x1)
Format                                   : AC-3
Format/Info                              : Audio Coding 3
Mode extension                           : CM (complete main)
Format settings, Endianness              : Big
Codec ID                                 : 129
Duration                                 : 5 min 6 s
Bit rate mode                            : Constant
Bit rate                                 : 384 kb/s
Channel(s)                               : 6 channels
Channel positions                        : Front: L C R, Side: L R, LFE
Sampling rate                            : 48.0 kHz
Frame rate                               : 31.250 FPS (1536 spf)
Bit depth                                : 16 bits
Compression mode                         : Lossy
Delay relative to video                  : 12 ms
Stream size                              : 14.0 MiB (2%)
Language                                 : English
Download
[HIDE-REPLY]MEGA[/HIDE-REPLY]
 
Last edited: