Master Clean Bandit feat. Sean Paul & Anne-Marie - Rockabye (Master-1080p)

NCURBAN

Well-Known Member
Administrative
May 25, 2016
3,347
3,892
113
Clean Bandit feat. Sean Paul & Anne-Marie - Rockabye (Master-1080p)


Genre: Dance
Released: Oct 21, 2016
Copyright: ℗ 2016 Atlantic Records UK, a Warner Music Group company
Code:
Format                                   : MPEG-4
Format profile                           : Base Media / Version 2
Codec ID                                 : mp42 (mp42/mp41)
File size                                : 486 MiB
Duration                                 : 4 min 13 s
Overall bit rate mode                    : Variable
Overall bit rate                         : 16.1 Mb/s
Encoded date                             : UTC 2016-10-21 09:41:13
Tagged date                              : UTC 2016-10-21 09:41:21
©TIM                                     : 00:00:00:00
©TSC                                     : 25
©TSZ                                     : 1

Video
ID                                       : 1
Format                                   : AVC
Format/Info                              : Advanced Video Codec
Format profile                           : High@L4.2
Format settings, CABAC                   : Yes
Format settings, ReFrames                : 3 frames
Format settings, GOP                     : M=3, N=25
Codec ID                                 : avc1
Codec ID/Info                            : Advanced Video Coding
Duration                                 : 4 min 13 s
Bit rate mode                            : Variable
Bit rate                                 : 15.7 Mb/s
Maximum bit rate                         : 16.0 Mb/s
Width                                    : 1 920 pixels
Height                                   : 1 080 pixels
Display aspect ratio                     : 16:9
Frame rate mode                          : Constant
Frame rate                               : 25.000 FPS
Standard                                 : PAL
Color space                              : YUV
Chroma subsampling                       : 4:2:0
Bit depth                                : 8 bits
Scan type                                : Progressive
Bits/(Pixel*Frame)                       : 0.304
Stream size                              : 476 MiB (98%)
Language                                 : English
Encoded date                             : UTC 2016-10-21 09:41:13
Tagged date                              : UTC 2016-10-21 09:41:13
Color range                              : Limited
Color primaries                          : BT.709
Transfer characteristics                 : BT.709
Matrix coefficients                      : BT.709

Audio
ID                                       : 2
Format                                   : AAC
Format/Info                              : Advanced Audio Codec
Format profile                           : LC
Codec ID                                 : 40
Duration                                 : 4 min 13 s
Source duration                          : 4 min 13 s
Bit rate mode                            : Variable
Bit rate                                 : 317 kb/s
Maximum bit rate                         : 459 kb/s
Channel(s)                               : 2 channels
Channel positions                        : Front: L R
Sampling rate                            : 48.0 kHz
Frame rate                               : 46.875 FPS (1024 spf)
Compression mode                         : Lossy
Stream size                              : 9.61 MiB (2%)
Source stream size                       : 9.61 MiB (2%)
Language                                 : English
Encoded date                             : UTC 2016-10-21 09:41:13
Tagged date                              : UTC 2016-10-21 09:41:13
Download
[HIDE-REPLY]MEGA[/HIDE-REPLY]
 

Frodo56

New Member
Registered
Sep 30, 2018
5
0
1
23
Clean Bandit feat. Sean Paul & Anne-Marie - Rockabye (Master-1080p)




Code:
Format                                   : MPEG-4
Format profile                           : Base Media / Version 2
Codec ID                                 : mp42 (mp42/mp41)
File size                                : 486 MiB
Duration                                 : 4 min 13 s
Overall bit rate mode                    : Variable
Overall bit rate                         : 16.1 Mb/s
Encoded date                             : UTC 2016-10-21 09:41:13
Tagged date                              : UTC 2016-10-21 09:41:21
©TIM                                     : 00:00:00:00
©TSC                                     : 25
©TSZ                                     : 1

Video
ID                                       : 1
Format                                   : AVC
Format/Info                              : Advanced Video Codec
Format profile                           : High@L4.2
Format settings, CABAC                   : Yes
Format settings, ReFrames                : 3 frames
Format settings, GOP                     : M=3, N=25
Codec ID                                 : avc1
Codec ID/Info                            : Advanced Video Coding
Duration                                 : 4 min 13 s
Bit rate mode                            : Variable
Bit rate                                 : 15.7 Mb/s
Maximum bit rate                         : 16.0 Mb/s
Width                                    : 1 920 pixels
Height                                   : 1 080 pixels
Display aspect ratio                     : 16:9
Frame rate mode                          : Constant
Frame rate                               : 25.000 FPS
Standard                                 : PAL
Color space                              : YUV
Chroma subsampling                       : 4:2:0
Bit depth                                : 8 bits
Scan type                                : Progressive
Bits/(Pixel*Frame)                       : 0.304
Stream size                              : 476 MiB (98%)
Language                                 : English
Encoded date                             : UTC 2016-10-21 09:41:13
Tagged date                              : UTC 2016-10-21 09:41:13
Color range                              : Limited
Color primaries                          : BT.709
Transfer characteristics                 : BT.709
Matrix coefficients                      : BT.709

Audio
ID                                       : 2
Format                                   : AAC
Biçim / Bilgi: Gelişmiş Ses Kodek
Biçim profili: LC
Codec ID: 40
Süre: 4 dak 13 s
Kaynak süresi: 4 dk 13 s
Bit hızı modu: Değişken
Bit oranı: 317 kb / s
Maksimum bit hızı: 459 kb / s
Kanal (lar): 2 kanal
Kanal pozisyonları: Ön: LR
Örnekleme oranı: 48.0 kHz
Kare hızı: 46.875 FPS (1024 spf)
Sıkıştırma modu: kayıp
Akış boyutu: 9.61 MiB (% 2)
Kaynak akış boyutu: 9.61 MiB (% 2)
Dil ingilizce
Kodlanmış tarih: UTC 2016-10-21 09:41:13
Etiketlenen tarih: UTC 2016-10-21 09:41:13 [/ CODE][/LEFT]
[CENTER][/ SPOILER][/CENTER]
İndir
[B]*** Gizli içerik alıntılanamaz. ***[/B] [/ QUOTE]
Teşekkürler
 

Srema arub

New Member
Registered
Dec 27, 2018
22
0
1
26
thanks a l
Clean Bandit feat. Sean Paul & Anne-Marie - Rockabye (Master-1080p)




Code:
Format                                   : MPEG-4
Format profile                           : Base Media / Version 2
Codec ID                                 : mp42 (mp42/mp41)
File size                                : 486 MiB
Duration                                 : 4 min 13 s
Overall bit rate mode                    : Variable
Overall bit rate                         : 16.1 Mb/s
Encoded date                             : UTC 2016-10-21 09:41:13
Tagged date                              : UTC 2016-10-21 09:41:21
©TIM                                     : 00:00:00:00
©TSC                                     : 25
©TSZ                                     : 1

Video
ID                                       : 1
Format                                   : AVC
Format/Info                              : Advanced Video Codec
Format profile                           : High@L4.2
Format settings, CABAC                   : Yes
Format settings, ReFrames                : 3 frames
Format settings, GOP                     : M=3, N=25
Codec ID                                 : avc1
Codec ID/Info                            : Advanced Video Coding
Duration                                 : 4 min 13 s
Bit rate mode                            : Variable
Bit rate                                 : 15.7 Mb/s
Maximum bit rate                         : 16.0 Mb/s
Width                                    : 1 920 pixels
Height                                   : 1 080 pixels
Display aspect ratio                     : 16:9
Frame rate mode                          : Constant
Frame rate                               : 25.000 FPS
Standard                                 : PAL
Color space                              : YUV
Chroma subsampling                       : 4:2:0
Bit depth                                : 8 bits
Scan type                                : Progressive
Bits/(Pixel*Frame)                       : 0.304
Stream size                              : 476 MiB (98%)
Language                                 : English
Encoded date                             : UTC 2016-10-21 09:41:13
Tagged date                              : UTC 2016-10-21 09:41:13
Color range                              : Limited
Color primaries                          : BT.709
Transfer characteristics                 : BT.709
Matrix coefficients                      : BT.709

Audio
ID                                       : 2
Format                                   : AAC
Format/Info                              : Advanced Audio Codec
Format profile                           : LC
Codec ID                                 : 40
Duration                                 : 4 min 13 s
Source duration                          : 4 min 13 s
Bit rate mode                            : Variable
Bit rate                                 : 317 kb/s
Maximum bit rate                         : 459 kb/s
Channel(s)                               : 2 channels
Channel positions                        : Front: L R
Sampling rate                            : 48.0 kHz
Frame rate                               : 46.875 FPS (1024 spf)
Compression mode                         : Lossy
Stream size                              : 9.61 MiB (2%)
Source stream size                       : 9.61 MiB (2%)
Language                                 : English
Encoded date                             : UTC 2016-10-21 09:41:13
Tagged date                              : UTC 2016-10-21 09:41:13
Download
***Hidden content cannot be quoted.***
thnxx a lot
 

kimpoy13

Member
Registered
Feb 4, 2019
113
2
18
26
Clean Bandit feat. Sean Paul & Anne-Marie - Rockabye (Master-1080p)




Code:
Format                                   : MPEG-4
Format profile                           : Base Media / Version 2
Codec ID                                 : mp42 (mp42/mp41)
File size                                : 486 MiB
Duration                                 : 4 min 13 s
Overall bit rate mode                    : Variable
Overall bit rate                         : 16.1 Mb/s
Encoded date                             : UTC 2016-10-21 09:41:13
Tagged date                              : UTC 2016-10-21 09:41:21
©TIM                                     : 00:00:00:00
©TSC                                     : 25
©TSZ                                     : 1

Video
ID                                       : 1
Format                                   : AVC
Format/Info                              : Advanced Video Codec
Format profile                           : High@L4.2
Format settings, CABAC                   : Yes
Format settings, ReFrames                : 3 frames
Format settings, GOP                     : M=3, N=25
Codec ID                                 : avc1
Codec ID/Info                            : Advanced Video Coding
Duration                                 : 4 min 13 s
Bit rate mode                            : Variable
Bit rate                                 : 15.7 Mb/s
Maximum bit rate                         : 16.0 Mb/s
Width                                    : 1 920 pixels
Height                                   : 1 080 pixels
Display aspect ratio                     : 16:9
Frame rate mode                          : Constant
Frame rate                               : 25.000 FPS
Standard                                 : PAL
Color space                              : YUV
Chroma subsampling                       : 4:2:0
Bit depth                                : 8 bits
Scan type                                : Progressive
Bits/(Pixel*Frame)                       : 0.304
Stream size                              : 476 MiB (98%)
Language                                 : English
Encoded date                             : UTC 2016-10-21 09:41:13
Tagged date                              : UTC 2016-10-21 09:41:13
Color range                              : Limited
Color primaries                          : BT.709
Transfer characteristics                 : BT.709
Matrix coefficients                      : BT.709

Audio
ID                                       : 2
Format                                   : AAC
Format/Info                              : Advanced Audio Codec
Format profile                           : LC
Codec ID                                 : 40
Duration                                 : 4 min 13 s
Source duration                          : 4 min 13 s
Bit rate mode                            : Variable
Bit rate                                 : 317 kb/s
Maximum bit rate                         : 459 kb/s
Channel(s)                               : 2 channels
Channel positions                        : Front: L R
Sampling rate                            : 48.0 kHz
Frame rate                               : 46.875 FPS (1024 spf)
Compression mode                         : Lossy
Stream size                              : 9.61 MiB (2%)
Source stream size                       : 9.61 MiB (2%)
Language                                 : English
Encoded date                             : UTC 2016-10-21 09:41:13
Tagged date                              : UTC 2016-10-21 09:41:13
Download
***Hidden content cannot be quoted.***[/QUOTE]