HDTV Clean Bandit ft. Louisa Johnson & 5 After Midnight - Tears (The X Factor UK 2016) [HDTV-1080i]-kmfan

NCURBAN

Well-Known Member
Administrative
May 25, 2016
3,347
3,593
113
Clean Bandit ft. Louisa Johnson & 5 After Midnight - Tears (The X Factor UK 2016) [HDTV-1080i]-kmfan


Gener: Pop
At: The X Factor UK
Date: Dec 10, 2016
Code:
Format                                   : MPEG-TS
File size                                : 271 MiB
Duration                                 : 4 min 56 s
Overall bit rate mode                    : Variable
Overall bit rate                         : 7 665 kb/s

Video
ID                                       : 2330 (0x91A)
Menu ID                                  : 20740 (0x5104)
Format                                   : AVC
Format/Info                              : Advanced Video Codec
Format profile                           : Main@L4
Format settings, CABAC                   : Yes
Format settings, ReFrames                : 4 frames
Codec ID                                 : 27
Duration                                 : 4 min 56 s
Bit rate                                 : 6 930 kb/s
Maximum bit rate                         : 48.0 Mb/s
Width                                    : 1 920 pixels
Height                                   : 1 080 pixels
Display aspect ratio                     : 16:9
Frame rate                               : 25.000 FPS
Standard                                 : Component
Color space                              : YUV
Chroma subsampling                       : 4:2:0
Bit depth                                : 8 bits
Scan type                                : MBAFF
Scan type, store method                  : Interleaved fields
Scan order                               : Top Field First
Bits/(Pixel*Frame)                       : 0.134
Stream size                              : 245 MiB (90%)
Color range                              : Limited
Color primaries                          : BT.709
Transfer characteristics                 : BT.709
Matrix coefficients                      : BT.709

Audio #1
ID                                       : 2331 (0x91B)
Menu ID                                  : 20740 (0x5104)
Format                                   : AC-3
Format/Info                              : Audio Coding 3
Mode extension                           : CM (complete main)
Format settings, Endianness              : Big
Codec ID                                 : 6
Duration                                 : 4 min 56 s
Bit rate mode                            : Constant
Bit rate                                 : 192 kb/s
Maximum bit rate                         : 48.0 Mb/s
Channel(s)                               : 2 channels
Channel positions                        : Front: L R
Sampling rate                            : 48.0 kHz
Frame rate                               : 31.250 FPS (1536 spf)
Bit depth                                : 16 bits
Compression mode                         : Lossy
Delay relative to video                  : 40 ms
Stream size                              : 6.78 MiB (3%)
Language                                 : English
Download
[HIDE-REPLY]MEGA[/HIDE-REPLY]