HDTV Clean Bandit ft. Sean Paul & Anne-Marie - Rockabye (The X Factor UK 2016) [720p-HDTV]

NCURBAN

Well-Known Member
Administrative
May 25, 2016
3,347
3,630
113
Clean Bandit ft. Sean Paul & Anne-Marie - Rockabye (The X Factor UK 2016) [720p-HDTV]

Geners: Pop
At: The X Factor UK
Date: 27 Nov, 2016
Code:
Format                                   : MPEG-4
Format profile                           : Base Media / Version 2
Codec ID                                 : mp42 (mp42)
File size                                : 263 MiB
Duration                                 : 5 min 5 s
Overall bit rate mode                    : Variable
Overall bit rate                         : 7 211 kb/s
Codirector                               : codirector
Production studio                        : studio
ContentType                              : Unknown Type
Encoded date                             : UTC 2016-11-28 03:41:05
Tagged date                              : UTC 2016-11-28 03:41:05

Video
ID                                       : 1
Format                                   : AVC
Format/Info                              : Advanced Video Codec
Format profile                           : Main@L4.1
Format settings, CABAC                   : Yes
Format settings, ReFrames                : 2 frames
Format settings, GOP                     : M=3, N=24
Muxing mode                              : Container profile=Baseline@3.0
Codec ID                                 : avc1
Codec ID/Info                            : Advanced Video Coding
Duration                                 : 5 min 5 s
Bit rate mode                            : Variable
Bit rate                                 : 7 010 kb/s
Maximum bit rate                         : 10.5 Mb/s
Width                                    : 1 280 pixels
Height                                   : 720 pixels
Display aspect ratio                     : 16:9
Frame rate mode                          : Constant
Frame rate                               : 50.000 FPS
Color space                              : YUV
Chroma subsampling                       : 4:2:0
Bit depth                                : 8 bits
Scan type                                : Progressive
Bits/(Pixel*Frame)                       : 0.152
Stream size                              : 255 MiB (97%)
Language                                 : English

Audio
ID                                       : 2
Format                                   : AAC
Format/Info                              : Advanced Audio Codec
Format profile                           : LC
Codec ID                                 : 40
Duration                                 : 5 min 5 s
Bit rate mode                            : Constant
Bit rate                                 : 192 kb/s
Channel(s)                               : 2 channels
Channel positions                        : Front: L R
Sampling rate                            : 48.0 kHz
Frame rate                               : 46.875 FPS (1024 spf)
Compression mode                         : Lossy
Stream size                              : 6.99 MiB (3%)
Title                                    : Stereo
Language                                 : English
Default                                  : Yes
Alternate group                          : 1
Download
[HIDE-REPLY]MEGA[/HIDE-REPLY]