FEED Clean Bandit & Zara Larsson - Symphony (The Voice UK 2017) [FEED-1080i]-HDMania

NCURBAN

Well-Known Member
Administrative
May 25, 2016
3,347
3,630
113
Clean Bandit & Zara Larsson - Symphony (The Voice UK 2017) [FEED-1080i]-HDMania


Gener: Pop
Live At: The Voice UK
Date: 18th March 2017
Code:
[LEFT]Format                                   : MPEG-TS
File size                                : 1.00 GiB
Duration                                 : 4 min 3 s
Overall bit rate mode                    : Variable
Overall bit rate                         : 35.4 Mb/s

Video
ID                                       : 33 (0x21)
Menu ID                                  : 1 (0x1)
Format                                   : AVC
Format/Info                              : Advanced Video Codec
Format profile                           : High@L4.1
Format settings, CABAC                   : Yes
Format settings, ReFrames                : 4 frames
Codec ID                                 : 27
Duration                                 : 4 min 3 s
Bit rate                                 : 33.4 Mb/s
Width                                    : 1 920 pixels
Height                                   : 1 080 pixels
Display aspect ratio                     : 16:9
Frame rate                               : 25.000 FPS
Color space                              : YUV
Chroma subsampling                       : 4:2:0
Bit depth                                : 8 bits
Scan type                                : Interlaced
Scan type, store method                  : Separated fields
Scan order                               : Top Field First
Bits/(Pixel*Frame)                       : 0.645
Stream size                              : 969 MiB (94%)
Color range                              : Limited
Color primaries                          : BT.709
Transfer characteristics                 : BT.709
Matrix coefficients                      : BT.709

Audio
ID                                       : 34 (0x22)
Menu ID                                  : 1 (0x1)
Format                                   : MPEG Audio
Format version                           : Version 1
Format profile                           : Layer 2
Codec ID                                 : 3
Duration                                 : 4 min 3 s
Bit rate mode                            : Constant
Bit rate                                 : 256 kb/s
Channel(s)                               : 2 channels
Sampling rate                            : 48.0 kHz
Compression mode                         : Lossy
Delay relative to video                  : 110 ms
Stream size                              : 7.42 MiB (1%)
Language                                 : English[/LEFT]
Download
You must reply before you can see the hidden data contained here.
 

RUNE

Member
Registered
Aug 17, 2016
50
0
6
42
Clean Bandit & Zara Larsson - Symphony (The Voice UK 2017) [FEED-1080i]-HDMania



Code:
[LEFT]Format                                   : MPEG-TS
File size                                : 1.00 GiB
Duration                                 : 4 min 3 s
Overall bit rate mode                    : Variable
Overall bit rate                         : 35.4 Mb/s

Video
ID                                       : 33 (0x21)
Menu ID                                  : 1 (0x1)
Format                                   : AVC
Format/Info                              : Advanced Video Codec
Format profile                           : High@L4.1
Format settings, CABAC                   : Yes
Format settings, ReFrames                : 4 frames
Codec ID                                 : 27
Duration                                 : 4 min 3 s
Bit rate                                 : 33.4 Mb/s
Width                                    : 1 920 pixels
Height                                   : 1 080 pixels
Display aspect ratio                     : 16:9
Frame rate                               : 25.000 FPS
Color space                              : YUV
Chroma subsampling                       : 4:2:0
Bit depth                                : 8 bits
Scan type                                : Interlaced
Scan type, store method                  : Separated fields
Scan order                               : Top Field First
Bits/(Pixel*Frame)                       : 0.645
Stream size                              : 969 MiB (94%)
Color range                              : Limited
Color primaries                          : BT.709
Transfer characteristics                 : BT.709
Matrix coefficients                      : BT.709

Audio
ID                                       : 34 (0x22)
Menu ID                                  : 1 (0x1)
Format                                   : MPEG Audio
Format version                           : Version 1
Format profile                           : Layer 2
Codec ID                                 : 3
Duration                                 : 4 min 3 s
Bit rate mode                            : Constant
Bit rate                                 : 256 kb/s
Channel(s)                               : 2 channels
Sampling rate                            : 48.0 kHz
Compression mode                         : Lossy
Delay relative to video                  : 110 ms
Stream size                              : 7.42 MiB (1%)
Language                                 : English[/LEFT]
Download
***Hidden content cannot be quoted.***
Thank u!
Clean Bandit & Zara Larsson - Symphony (The Voice UK 2017) [FEED-1080i]-HDMania



Code:
[LEFT]Format                                   : MPEG-TS
File size                                : 1.00 GiB
Duration                                 : 4 min 3 s
Overall bit rate mode                    : Variable
Overall bit rate                         : 35.4 Mb/s

Video
ID                                       : 33 (0x21)
Menu ID                                  : 1 (0x1)
Format                                   : AVC
Format/Info                              : Advanced Video Codec
Format profile                           : High@L4.1
Format settings, CABAC                   : Yes
Format settings, ReFrames                : 4 frames
Codec ID                                 : 27
Duration                                 : 4 min 3 s
Bit rate                                 : 33.4 Mb/s
Width                                    : 1 920 pixels
Height                                   : 1 080 pixels
Display aspect ratio                     : 16:9
Frame rate                               : 25.000 FPS
Color space                              : YUV
Chroma subsampling                       : 4:2:0
Bit depth                                : 8 bits
Scan type                                : Interlaced
Scan type, store method                  : Separated fields
Scan order                               : Top Field First
Bits/(Pixel*Frame)                       : 0.645
Stream size                              : 969 MiB (94%)
Color range                              : Limited
Color primaries                          : BT.709
Transfer characteristics                 : BT.709
Matrix coefficients                      : BT.709

Audio
ID                                       : 34 (0x22)
Menu ID                                  : 1 (0x1)
Format                                   : MPEG Audio
Format version                           : Version 1
Format profile                           : Layer 2
Codec ID                                 : 3
Duration                                 : 4 min 3 s
Bit rate mode                            : Constant
Bit rate                                 : 256 kb/s
Channel(s)                               : 2 channels
Sampling rate                            : 48.0 kHz
Compression mode                         : Lossy
Delay relative to video                  : 110 ms
Stream size                              : 7.42 MiB (1%)
Language                                 : English[/LEFT]
Download
***Hidden content cannot be quoted.***
thank u!