FEED Coldplay - Glastonbury 2016 (FEED-1080i)-HDMania

NCURBAN

Well-Known Member
Administrative
May 25, 2016
3,347
3,635
113
Coldplay - Glastonbury 2016 (FEED-1080i)-HDMania


Setlist:
  1. A Head Full of Dreams (intro extract by Charlie… more )
  2. Yellow
  3. Every Teardrop Is a Waterfall
  4. The Scientist
  5. Birds (with "Oceans" excerpt in intro)
  6. Paradise (with Tiësto remix outro)
  7. Everglow (restarted with Chris solo due… more )
  8. Clocks (with "Army of One" excerpt in intro)
  9. Midnight (partial)
  10. Charlie Brown
  11. Hymn for the Weekend
  12. Fix You (with "Midnight" excerpt in intro)
  13. Boys That Sing (Viola Beach cover) (Coldplay debut; with Viola Beach vocals throughout)
  14. Viva la Vida
  15. Adventure of a Lifetime
  16. Kaleidoscope (extended)
  17. To Love Somebody (Bee Gees cover) (with Barry Gibb) (Coldplay debut)
  18. Stayin' Alive (Bee Gees cover) (with Barry Gibb) (Coldplay debut)
  19. A Sky Full of Stars
  20. Up&Up (with Apple and Moses Martin on backing vocals)
  21. My Way (Claude François cover) (Coldplay debut; with Michael Eavis on vocals)
  22. Up&Up (reprise; outro only)

Code:
Format                                   : MPEG-TS
File size                                : 9.41 GiB
Duration                                 : 1h 51mn
Overall bit rate mode                    : Variable
Overall bit rate                         : 12.1 Mbps

Video
ID                                       : 33 (0x21)
Menu ID                                  : 1 (0x1)
Format                                   : AVC
Format/Info                              : Advanced Video Codec
Format profile                           : High@L4.1
Format settings, CABAC                   : Yes
Format settings, ReFrames                : 4 frames
Codec ID                                 : 27
Duration                                 : 1h 51mn
Bit rate                                 : 11.3 Mbps
Width                                    : 1 920 pixels
Height                                   : 1 080 pixels
Display aspect ratio                     : 16:9
Frame rate                               : 25.000 fps
Color space                              : YUV
Chroma subsampling                       : 4:2:0
Bit depth                                : 8 bits
Scan type                                : Interlaced
Scan order                               : Top Field First
Bits/(Pixel*Frame)                       : 0.217
Stream size                              : 8.75 GiB (93%)
Color range                              : Limited
Color primaries                          : BT.709
Transfer characteristics                 : BT.709
Matrix coefficients                      : BT.709

Audio
ID                                       : 34 (0x22)
Menu ID                                  : 1 (0x1)
Format                                   : MPEG Audio
Format version                           : Version 1
Format profile                           : Layer 2
Codec ID                                 : 3
Duration                                 : 1h 51mn
Bit rate mode                            : Constant
Bit rate                                 : 256 Kbps
Channel(s)                               : 2 channels
Sampling rate                            : 48.0 KHz
Compression mode                         : Lossy
Delay relative to video                  : -80ms
Stream size                              : 204 MiB (2%)
Language                                 : English

Download
You must reply before you can see the hidden data contained here.