FEED Demi Lovato - Global Citizens Festival 2016 (FEED-1080i)-ALANiS

NCURBAN

Well-Known Member
Administrative
May 25, 2016
3,347
3,894
113
Demi Lovato - Global Citizens Festival 2016 (FEED-1080i)-ALANiS


Setlist:
  1. Confident
  2. For You
  3. Stone Cold
  4. (You Make Me Feel Like) A Natural Woman (Carole King cover)
  5. Cool for the Summer
Code:
Format                                   : MPEG-TS
File size                                : 1.35 GiB
Duration                                 : 19mn 54s
Overall bit rate mode                    : Variable
Overall bit rate                         : 9 680 Kbps

Video
ID                                       : 101 (0x65)
Menu ID                                  : 4 (0x4)
Format                                   : AVC
Format/Info                              : Advanced Video Codec
Format profile                           : High@L4
Format settings, CABAC                   : Yes
Format settings, ReFrames                : 3 frames
Codec ID                                 : 27
Duration                                 : 19mn 54s
Bit rate mode                            : Constant
Bit rate                                 : 8 800 Kbps
Width                                    : 1 920 pixels
Height                                   : 1 080 pixels
Display aspect ratio                     : 16:9
Frame rate                               : 29.970 fps
Color space                              : YUV
Chroma subsampling                       : 4:2:0
Bit depth                                : 8 bits
Scan type                                : Interlaced
Scan order                               : Top Field First
Bits/(Pixel*Frame)                       : 0.142
Stream size                              : 1.21 GiB (90%)
Color range                              : Limited
Color primaries                          : BT.709
Transfer characteristics                 : BT.709
Matrix coefficients                      : BT.709

Audio #1
ID                                       : 256 (0x100)
Menu ID                                  : 4 (0x4)
Format                                   : MPEG Audio
Format version                           : Version 1
Format profile                           : Layer 2
Codec ID                                 : 3
Duration                                 : 19mn 54s
Bit rate mode                            : Constant
Bit rate                                 : 256 Kbps
Channel(s)                               : 2 channels
Sampling rate                            : 48.0 KHz
Compression mode                         : Lossy
Stream size                              : 36.5 MiB (3%)
Language                                 : English

Download
[HIDE-REPLY]MEGA[/HIDE-REPLY]