Master Drake - Hotline Bling (Master-1080p)

NCURBAN

Well-Known Member
Administrative
May 25, 2016
3,347
3,620
113
Drake - Hotline Bling (Master-1080p)



Genre: Hip-Hop/Rap, 2016
Released: Oct 26, 2016​

Code:
Format                                   : MPEG-4
Format profile                           : Base Media / Version 2
Codec ID                                 : mp42
File size                                : 573 MiB
Duration                                 : 4mn 56s
Overall bit rate mode                    : Variable
Overall bit rate                         : 16.2 Mbps
Encoded date                             : UTC 2015-10-19 22:55:48
Tagged date                              : UTC 2015-10-19 22:56:12
©TIM                                     : 00:59:56:00
©TSC                                     : 24000
©TSZ                                     : 1001

Video
ID                                       : 1
Format                                   : AVC
Format/Info                              : Advanced Video Codec
Format profile                           : High@L4.2
Format settings, CABAC                   : Yes
Format settings, ReFrames                : 3 frames
Codec ID                                 : avc1
Codec ID/Info                            : Advanced Video Coding
Duration                                 : 4mn 56s
Bit rate mode                            : Variable
Bit rate                                 : 16.0 Mbps
Width                                    : 1 920 pixels
Height                                   : 1 080 pixels
Display aspect ratio                     : 16:9
Frame rate mode                          : Constant
Frame rate                               : 23.976 fps
Standard                                 : NTSC
Color space                              : YUV
Chroma subsampling                       : 4:2:0
Bit depth                                : 8 bits
Scan type                                : Progressive
Bits/(Pixel*Frame)                       : 0.322
Stream size                              : 561 MiB (98%)
Language                                 : English
Encoded date                             : UTC 2015-10-19 22:55:48
Tagged date                              : UTC 2015-10-19 22:55:48
Color range                              : Limited
Color primaries                          : BT.709
Transfer characteristics                 : BT.709
Matrix coefficients                      : BT.709

Audio
ID                                       : 2
Format                                   : AAC
Format/Info                              : Advanced Audio Codec
Format profile                           : LC
Codec ID                                 : 40
Duration                                 : 4mn 56s
Source duration                          : 4mn 56s
Bit rate mode                            : Variable
Bit rate                                 : 317 Kbps
Maximum bit rate                         : 469 Kbps
Channel(s)                               : 2 channels
Channel positions                        : Front: L R
Sampling rate                            : 48.0 KHz
Compression mode                         : Lossy
Stream size                              : 11.2 MiB (2%)
Source stream size                       : 11.2 MiB (2%)
Language                                 : English
Encoded date                             : UTC 2015-10-19 22:55:48
Tagged date                              : UTC 2015-10-19 22:55:48

Download
[HIDE-REPLY]MEGA[/HIDE-REPLY]
 

giggsy11

Member
Registered
Dec 15, 2018
66
0
6
34
thanks
Drake - Hotline Bling (Master-1080p)



Genre: Hip-Hop/Rap, 2016
Released: Oct 26, 2016​

Code:
Format                                   : MPEG-4
Format profile                           : Base Media / Version 2
Codec ID                                 : mp42
File size                                : 573 MiB
Duration                                 : 4mn 56s
Overall bit rate mode                    : Variable
Overall bit rate                         : 16.2 Mbps
Encoded date                             : UTC 2015-10-19 22:55:48
Tagged date                              : UTC 2015-10-19 22:56:12
©TIM                                     : 00:59:56:00
©TSC                                     : 24000
©TSZ                                     : 1001

Video
ID                                       : 1
Format                                   : AVC
Format/Info                              : Advanced Video Codec
Format profile                           : High@L4.2
Format settings, CABAC                   : Yes
Format settings, ReFrames                : 3 frames
Codec ID                                 : avc1
Codec ID/Info                            : Advanced Video Coding
Duration                                 : 4mn 56s
Bit rate mode                            : Variable
Bit rate                                 : 16.0 Mbps
Width                                    : 1 920 pixels
Height                                   : 1 080 pixels
Display aspect ratio                     : 16:9
Frame rate mode                          : Constant
Frame rate                               : 23.976 fps
Standard                                 : NTSC
Color space                              : YUV
Chroma subsampling                       : 4:2:0
Bit depth                                : 8 bits
Scan type                                : Progressive
Bits/(Pixel*Frame)                       : 0.322
Stream size                              : 561 MiB (98%)
Language                                 : English
Encoded date                             : UTC 2015-10-19 22:55:48
Tagged date                              : UTC 2015-10-19 22:55:48
Color range                              : Limited
Color primaries                          : BT.709
Transfer characteristics                 : BT.709
Matrix coefficients                      : BT.709

Audio
ID                                       : 2
Format                                   : AAC
Format/Info                              : Advanced Audio Codec
Format profile                           : LC
Codec ID                                 : 40
Duration                                 : 4mn 56s
Source duration                          : 4mn 56s
Bit rate mode                            : Variable
Bit rate                                 : 317 Kbps
Maximum bit rate                         : 469 Kbps
Channel(s)                               : 2 channels
Channel positions                        : Front: L R
Sampling rate                            : 48.0 KHz
Compression mode                         : Lossy
Stream size                              : 11.2 MiB (2%)
Source stream size                       : 11.2 MiB (2%)
Language                                 : English
Encoded date                             : UTC 2015-10-19 22:55:48
Tagged date                              : UTC 2015-10-19 22:55:48

Download
***Hidden content cannot be quoted.***
 

kimpoy13

Member
Registered
Feb 4, 2019
113
2
18
26
Drake - Hotline Bling (Master-1080p)



Genre: Hip-Hop/Rap, 2016
Released: Oct 26, 2016​

Code:
Format                                   : MPEG-4
Format profile                           : Base Media / Version 2
Codec ID                                 : mp42
File size                                : 573 MiB
Duration                                 : 4mn 56s
Overall bit rate mode                    : Variable
Overall bit rate                         : 16.2 Mbps
Encoded date                             : UTC 2015-10-19 22:55:48
Tagged date                              : UTC 2015-10-19 22:56:12
©TIM                                     : 00:59:56:00
©TSC                                     : 24000
©TSZ                                     : 1001

Video
ID                                       : 1
Format                                   : AVC
Format/Info                              : Advanced Video Codec
Format profile                           : High@L4.2
Format settings, CABAC                   : Yes
Format settings, ReFrames                : 3 frames
Codec ID                                 : avc1
Codec ID/Info                            : Advanced Video Coding
Duration                                 : 4mn 56s
Bit rate mode                            : Variable
Bit rate                                 : 16.0 Mbps
Width                                    : 1 920 pixels
Height                                   : 1 080 pixels
Display aspect ratio                     : 16:9
Frame rate mode                          : Constant
Frame rate                               : 23.976 fps
Standard                                 : NTSC
Color space                              : YUV
Chroma subsampling                       : 4:2:0
Bit depth                                : 8 bits
Scan type                                : Progressive
Bits/(Pixel*Frame)                       : 0.322
Stream size                              : 561 MiB (98%)
Language                                 : English
Encoded date                             : UTC 2015-10-19 22:55:48
Tagged date                              : UTC 2015-10-19 22:55:48
Color range                              : Limited
Color primaries                          : BT.709
Transfer characteristics                 : BT.709
Matrix coefficients                      : BT.709

Audio
ID                                       : 2
Format                                   : AAC
Format/Info                              : Advanced Audio Codec
Format profile                           : LC
Codec ID                                 : 40
Duration                                 : 4mn 56s
Source duration                          : 4mn 56s
Bit rate mode                            : Variable
Bit rate                                 : 317 Kbps
Maximum bit rate                         : 469 Kbps
Channel(s)                               : 2 channels
Channel positions                        : Front: L R
Sampling rate                            : 48.0 KHz
Compression mode                         : Lossy
Stream size                              : 11.2 MiB (2%)
Source stream size                       : 11.2 MiB (2%)
Language                                 : English
Encoded date                             : UTC 2015-10-19 22:55:48
Tagged date                              : UTC 2015-10-19 22:55:48

Download
***Hidden content cannot be quoted.***[/QUOTE]
 
  • Like
Reactions: piolamago

bharath_H

Member
Registered
May 9, 2019
34
0
6
21
wow!
Drake - Hotline Bling (Master-1080p)



Genre: Hip-Hop/Rap, 2016
Released: Oct 26, 2016​

Code:
Format                                   : MPEG-4
Format profile                           : Base Media / Version 2
Codec ID                                 : mp42
File size                                : 573 MiB
Duration                                 : 4mn 56s
Overall bit rate mode                    : Variable
Overall bit rate                         : 16.2 Mbps
Encoded date                             : UTC 2015-10-19 22:55:48
Tagged date                              : UTC 2015-10-19 22:56:12
©TIM                                     : 00:59:56:00
©TSC                                     : 24000
©TSZ                                     : 1001

Video
ID                                       : 1
Format                                   : AVC
Format/Info                              : Advanced Video Codec
Format profile                           : High@L4.2
Format settings, CABAC                   : Yes
Format settings, ReFrames                : 3 frames
Codec ID                                 : avc1
Codec ID/Info                            : Advanced Video Coding
Duration                                 : 4mn 56s
Bit rate mode                            : Variable
Bit rate                                 : 16.0 Mbps
Width                                    : 1 920 pixels
Height                                   : 1 080 pixels
Display aspect ratio                     : 16:9
Frame rate mode                          : Constant
Frame rate                               : 23.976 fps
Standard                                 : NTSC
Color space                              : YUV
Chroma subsampling                       : 4:2:0
Bit depth                                : 8 bits
Scan type                                : Progressive
Bits/(Pixel*Frame)                       : 0.322
Stream size                              : 561 MiB (98%)
Language                                 : English
Encoded date                             : UTC 2015-10-19 22:55:48
Tagged date                              : UTC 2015-10-19 22:55:48
Color range                              : Limited
Color primaries                          : BT.709
Transfer characteristics                 : BT.709
Matrix coefficients                      : BT.709

Audio
ID                                       : 2
Format                                   : AAC
Format/Info                              : Advanced Audio Codec
Format profile                           : LC
Codec ID                                 : 40
Duration                                 : 4mn 56s
Source duration                          : 4mn 56s
Bit rate mode                            : Variable
Bit rate                                 : 317 Kbps
Maximum bit rate                         : 469 Kbps
Channel(s)                               : 2 channels
Channel positions                        : Front: L R
Sampling rate                            : 48.0 KHz
Compression mode                         : Lossy
Stream size                              : 11.2 MiB (2%)
Source stream size                       : 11.2 MiB (2%)
Language                                 : English
Encoded date                             : UTC 2015-10-19 22:55:48
Tagged date                              : UTC 2015-10-19 22:55:48

Download
***Hidden content cannot be quoted.***[/QUOTE]
 

Nyein

New Member
Registered
May 19, 2019
7
0
1
24
Drake - Hotline Bling (Master-1080p)



Genre: Hip-Hop/Rap, 2016
Released: Oct 26, 2016​

Code:
Format                                   : MPEG-4
Format profile                           : Base Media / Version 2
Codec ID                                 : mp42
File size                                : 573 MiB
Duration                                 : 4mn 56s
Overall bit rate mode                    : Variable
Overall bit rate                         : 16.2 Mbps
Encoded date                             : UTC 2015-10-19 22:55:48
Tagged date                              : UTC 2015-10-19 22:56:12
©TIM                                     : 00:59:56:00
©TSC                                     : 24000
©TSZ                                     : 1001

Video
ID                                       : 1
Format                                   : AVC
Format/Info                              : Advanced Video Codec
Format profile                           : High@L4.2
Format settings, CABAC                   : Yes
Format settings, ReFrames                : 3 frames
Codec ID                                 : avc1
Codec ID/Info                            : Advanced Video Coding
Duration                                 : 4mn 56s
Bit rate mode                            : Variable
Bit rate                                 : 16.0 Mbps
Width                                    : 1 920 pixels
Height                                   : 1 080 pixels
Display aspect ratio                     : 16:9
Frame rate mode                          : Constant
Frame rate                               : 23.976 fps
Standard                                 : NTSC
Color space                              : YUV
Chroma subsampling                       : 4:2:0
Bit depth                                : 8 bits
Scan type                                : Progressive
Bits/(Pixel*Frame)                       : 0.322
Stream size                              : 561 MiB (98%)
Language                                 : English
Encoded date                             : UTC 2015-10-19 22:55:48
Tagged date                              : UTC 2015-10-19 22:55:48
Color range                              : Limited
Color primaries                          : BT.709
Transfer characteristics                 : BT.709
Matrix coefficients                      : BT.709

Audio
ID                                       : 2
Format                                   : AAC
Format/Info                              : Advanced Audio Codec
Format profile                           : LC
Codec ID                                 : 40
Duration                                 : 4mn 56s
Source duration                          : 4mn 56s
Bit rate mode                            : Variable
Bit rate                                 : 317 Kbps
Maximum bit rate                         : 469 Kbps
Channel(s)                               : 2 channels
Channel positions                        : Front: L R
Sampling rate                            : 48.0 KHz
Compression mode                         : Lossy
Stream size                              : 11.2 MiB (2%)
Source stream size                       : 11.2 MiB (2%)
Language                                 : English
Encoded date                             : UTC 2015-10-19 22:55:48
Tagged date                              : UTC 2015-10-19 22:55:48

Download
***Hidden content cannot be quoted.***
Hello
 

amino

New Member
Registered
Jun 7, 2019
6
0
1
22
Drake - Hotline Bling (Master-1080p)



Genre: Hip-Hop/Rap, 2016
Released: Oct 26, 2016​

Code:
Format                                   : MPEG-4
Format profile                           : Base Media / Version 2
Codec ID                                 : mp42
File size                                : 573 MiB
Duration                                 : 4mn 56s
Overall bit rate mode                    : Variable
Overall bit rate                         : 16.2 Mbps
Encoded date                             : UTC 2015-10-19 22:55:48
Tagged date                              : UTC 2015-10-19 22:56:12
©TIM                                     : 00:59:56:00
©TSC                                     : 24000
©TSZ                                     : 1001

Video
ID                                       : 1
Format                                   : AVC
Format/Info                              : Advanced Video Codec
Format profile                           : High@L4.2
Format settings, CABAC                   : Yes
Format settings, ReFrames                : 3 frames
Codec ID                                 : avc1
Codec ID/Info                            : Advanced Video Coding
Duration                                 : 4mn 56s
Bit rate mode                            : Variable
Bit rate                                 : 16.0 Mbps
Width                                    : 1 920 pixels
Height                                   : 1 080 pixels
Display aspect ratio                     : 16:9
Frame rate mode                          : Constant
Frame rate                               : 23.976 fps
Standard                                 : NTSC
Color space                              : YUV
Chroma subsampling                       : 4:2:0
Bit depth                                : 8 bits
Scan type                                : Progressive
Bits/(Pixel*Frame)                       : 0.322
Stream size                              : 561 MiB (98%)
Language                                 : English
Encoded date                             : UTC 2015-10-19 22:55:48
Tagged date                              : UTC 2015-10-19 22:55:48
Color range                              : Limited
Color primaries                          : BT.709
Transfer characteristics                 : BT.709
Matrix coefficients                      : BT.709

Audio
ID                                       : 2
Format                                   : AAC
Format/Info                              : Advanced Audio Codec
Format profile                           : LC
Codec ID                                 : 40
Duration                                 : 4mn 56s
Source duration                          : 4mn 56s
Bit rate mode                            : Variable
Bit rate                                 : 317 Kbps
Maximum bit rate                         : 469 Kbps
Channel(s)                               : 2 channels
Channel positions                        : Front: L R
Sampling rate                            : 48.0 KHz
Compression mode                         : Lossy
Stream size                              : 11.2 MiB (2%)
Source stream size                       : 11.2 MiB (2%)
Language                                 : English
Encoded date                             : UTC 2015-10-19 22:55:48
Tagged date                              : UTC 2015-10-19 22:55:48

Download
***Hidden content cannot be quoted.***
yum
 

NhatDoan

New Member
Registered
Jun 22, 2019
10
0
1
27
Drake - Hotline Bling (Master-1080p)



Genre: Hip-Hop/Rap, 2016
Released: Oct 26, 2016​

Code:
Format                                   : MPEG-4
Format profile                           : Base Media / Version 2
Codec ID                                 : mp42
File size                                : 573 MiB
Duration                                 : 4mn 56s
Overall bit rate mode                    : Variable
Overall bit rate                         : 16.2 Mbps
Encoded date                             : UTC 2015-10-19 22:55:48
Tagged date                              : UTC 2015-10-19 22:56:12
©TIM                                     : 00:59:56:00
©TSC                                     : 24000
©TSZ                                     : 1001

Video
ID                                       : 1
Format                                   : AVC
Format/Info                              : Advanced Video Codec
Format profile                           : High@L4.2
Format settings, CABAC                   : Yes
Format settings, ReFrames                : 3 frames
Codec ID                                 : avc1
Codec ID/Info                            : Advanced Video Coding
Duration                                 : 4mn 56s
Bit rate mode                            : Variable
Bit rate                                 : 16.0 Mbps
Width                                    : 1 920 pixels
Height                                   : 1 080 pixels
Display aspect ratio                     : 16:9
Frame rate mode                          : Constant
Frame rate                               : 23.976 fps
Standard                                 : NTSC
Color space                              : YUV
Chroma subsampling                       : 4:2:0
Bit depth                                : 8 bits
Scan type                                : Progressive
Bits/(Pixel*Frame)                       : 0.322
Stream size                              : 561 MiB (98%)
Language                                 : English
Encoded date                             : UTC 2015-10-19 22:55:48
Tagged date                              : UTC 2015-10-19 22:55:48
Color range                              : Limited
Color primaries                          : BT.709
Transfer characteristics                 : BT.709
Matrix coefficients                      : BT.709

Audio
ID                                       : 2
Format                                   : AAC
Format/Info                              : Advanced Audio Codec
Format profile                           : LC
Codec ID                                 : 40
Duration                                 : 4mn 56s
Source duration                          : 4mn 56s
Bit rate mode                            : Variable
Bit rate                                 : 317 Kbps
Maximum bit rate                         : 469 Kbps
Channel(s)                               : 2 channels
Channel positions                        : Front: L R
Sampling rate                            : 48.0 KHz
Compression mode                         : Lossy
Stream size                              : 11.2 MiB (2%)
Source stream size                       : 11.2 MiB (2%)
Language                                 : English
Encoded date                             : UTC 2015-10-19 22:55:48
Tagged date                              : UTC 2015-10-19 22:55:48

Download
***Hidden content cannot be quoted.***
THanks!!
 

Raj

Member
Registered
Jul 3, 2019
67
0
6
29
Drake - Hotline Bling (Master-1080p)



Genre: Hip-Hop/Rap, 2016
Released: Oct 26, 2016​

Code:
Format                                   : MPEG-4
Format profile                           : Base Media / Version 2
Codec ID                                 : mp42
File size                                : 573 MiB
Duration                                 : 4mn 56s
Overall bit rate mode                    : Variable
Overall bit rate                         : 16.2 Mbps
Encoded date                             : UTC 2015-10-19 22:55:48
Tagged date                              : UTC 2015-10-19 22:56:12
©TIM                                     : 00:59:56:00
©TSC                                     : 24000
©TSZ                                     : 1001

Video
ID                                       : 1
Format                                   : AVC
Format/Info                              : Advanced Video Codec
Format profile                           : High@L4.2
Format settings, CABAC                   : Yes
Format settings, ReFrames                : 3 frames
Codec ID                                 : avc1
Codec ID/Info                            : Advanced Video Coding
Duration                                 : 4mn 56s
Bit rate mode                            : Variable
Bit rate                                 : 16.0 Mbps
Width                                    : 1 920 pixels
Height                                   : 1 080 pixels
Display aspect ratio                     : 16:9
Frame rate mode                          : Constant
Frame rate                               : 23.976 fps
Standard                                 : NTSC
Color space                              : YUV
Chroma subsampling                       : 4:2:0
Bit depth                                : 8 bits
Scan type                                : Progressive
Bits/(Pixel*Frame)                       : 0.322
Stream size                              : 561 MiB (98%)
Language                                 : English
Encoded date                             : UTC 2015-10-19 22:55:48
Tagged date                              : UTC 2015-10-19 22:55:48
Color range                              : Limited
Color primaries                          : BT.709
Transfer characteristics                 : BT.709
Matrix coefficients                      : BT.709

Audio
ID                                       : 2
Format                                   : AAC
Format/Info                              : Advanced Audio Codec
Format profile                           : LC
Codec ID                                 : 40
Duration                                 : 4mn 56s
Source duration                          : 4mn 56s
Bit rate mode                            : Variable
Bit rate                                 : 317 Kbps
Maximum bit rate                         : 469 Kbps
Channel(s)                               : 2 channels
Channel positions                        : Front: L R
Sampling rate                            : 48.0 KHz
Compression mode                         : Lossy
Stream size                              : 11.2 MiB (2%)
Source stream size                       : 11.2 MiB (2%)
Language                                 : English
Encoded date                             : UTC 2015-10-19 22:55:48
Tagged date                              : UTC 2015-10-19 22:55:48

Download
***Hidden content cannot be quoted.***