HDTV Dua Lipa - SWR3 New Pop Festival 2016 (HDTV-720p)-HDMania

NCURBAN

Well-Known Member
Administrative
May 25, 2016
3,347
3,859
113
Dua Lipa - SWR3 New Pop Festival 2016 (HDTV-720p)-HDMania


Gener: Pop
Festival: SWR3 New Pop
At: Kurhaus, Baden-Baden, Germany
Date: September 16, 2016
Setlist:
  1. Blow Your Mind (Mwah)
  2. Want To
  3. Last Dance
  4. Bad Together
  5. New Love
  6. Thinkin' Bout You
  7. Running
  8. Good Times (Jamie xx cover)
  9. Genesis
  10. Be the One
  11. Hotter Than Hell
Code:
Format                                   : MPEG-TS
File size                                : 4.30 GiB
Duration                                 : 48 min 47 s
Overall bit rate mode                    : Variable
Overall bit rate                         : 12.6 Mb/s

Video
ID                                       : 5421 (0x152D)
Menu ID                                  : 1 (0x1)
Format                                   : AVC
Format/Info                              : Advanced Video Codec
Format profile                           : High@L4
Format settings, CABAC                   : Yes
Format settings, ReFrames                : 4 frames
Codec ID                                 : 27
Duration                                 : 48 min 47 s
Bit rate                                 : 11.5 Mb/s
Width                                    : 1 280 pixels
Height                                   : 720 pixels
Display aspect ratio                     : 16:9
Frame rate                               : 50.000 FPS
Color space                              : YUV
Chroma subsampling                       : 4:2:0
Bit depth                                : 8 bits
Scan type                                : Progressive
Bits/(Pixel*Frame)                       : 0.251
Stream size                              : 3.93 GiB (91%)

Audio
ID                                       : 5426 (0x1532)
Menu ID                                  : 1 (0x1)
Format                                   : AC-3
Format/Info                              : Audio Coding 3
Mode extension                           : CM (complete main)
Format settings, Endianness              : Big
Codec ID                                 : 6
Duration                                 : 48 min 47 s
Bit rate mode                            : Constant
Bit rate                                 : 448 kb/s
Channel(s)                               : 6 channels
Channel positions                        : Front: L C R, Side: L R, LFE
Sampling rate                            : 48.0 kHz
Frame rate                               : 31.250 FPS (1536 spf)
Bit depth                                : 16 bits
Compression mode                         : Lossy
Stream size                              : 156 MiB (4%)
Language                                 : German
Download
You must reply before you can see the hidden data contained here.
 
Last edited:

carlos

New Member
Registered
Dec 20, 2017
1
0
1
35
Dua Lipa - SWR3 New Pop Festival 2016 (HDTV-720p)-HDMania


Setlist:

  1. Blow Your Mind (Mwah)
    Want To
    Last Dance
    Bad Together
    New Love
    Thinkin' Bout You
    Running
    Good Times (Jamie xx cover)
    Genesis
    Be the One
    Hotter Than Hell
Code:
Format                                   : MPEG-TS
File size                                : 4.30 GiB
Duration                                 : 48 min 47 s
Overall bit rate mode                    : Variable
Overall bit rate                         : 12.6 Mb/s

Video
ID                                       : 5421 (0x152D)
Menu ID                                  : 1 (0x1)
Format                                   : AVC
Format/Info                              : Advanced Video Codec
Format profile                           : High@L4
Format settings, CABAC                   : Yes
Format settings, ReFrames                : 4 frames
Codec ID                                 : 27
Duration                                 : 48 min 47 s
Bit rate                                 : 11.5 Mb/s
Width                                    : 1 280 pixels
Height                                   : 720 pixels
Display aspect ratio                     : 16:9
Frame rate                               : 50.000 FPS
Color space                              : YUV
Chroma subsampling                       : 4:2:0
Bit depth                                : 8 bits
Scan type                                : Progressive
Bits/(Pixel*Frame)                       : 0.251
Stream size                              : 3.93 GiB (91%)

Audio
ID                                       : 5426 (0x1532)
Menu ID                                  : 1 (0x1)
Format                                   : AC-3
Format/Info                              : Audio Coding 3
Mode extension                           : CM (complete main)
Format settings, Endianness              : Big
Codec ID                                 : 6
Duration                                 : 48 min 47 s
Bit rate mode                            : Constant
Bit rate                                 : 448 kb/s
Channel(s)                               : 6 channels
Channel positions                        : Front: L C R, Side: L R, LFE
Sampling rate                            : 48.0 kHz
Frame rate                               : 31.250 FPS (1536 spf)
Bit depth                                : 16 bits
Compression mode                         : Lossy
Stream size                              : 156 MiB (4%)
Language                                 : German
Download
***Hidden content cannot be quoted.***
 

xdlarryxd

New Member
Registered
Jan 5, 2020
2
0
1
25
Dua Lipa - SWR3 New Pop Festival 2016 (HDTV-720p)-HDMania


Setlist:

  1. Blow Your Mind (Mwah)
    Want To
    Last Dance
    Bad Together
    New Love
    Thinkin' Bout You
    Running
    Good Times (Jamie xx cover)
    Genesis
    Be the One
    Hotter Than Hell
Code:
Format                                   : MPEG-TS
File size                                : 4.30 GiB
Duration                                 : 48 min 47 s
Overall bit rate mode                    : Variable
Overall bit rate                         : 12.6 Mb/s

Video
ID                                       : 5421 (0x152D)
Menu ID                                  : 1 (0x1)
Format                                   : AVC
Format/Info                              : Advanced Video Codec
Format profile                           : High@L4
Format settings, CABAC                   : Yes
Format settings, ReFrames                : 4 frames
Codec ID                                 : 27
Duration                                 : 48 min 47 s
Bit rate                                 : 11.5 Mb/s
Width                                    : 1 280 pixels
Height                                   : 720 pixels
Display aspect ratio                     : 16:9
Frame rate                               : 50.000 FPS
Color space                              : YUV
Chroma subsampling                       : 4:2:0
Bit depth                                : 8 bits
Scan type                                : Progressive
Bits/(Pixel*Frame)                       : 0.251
Stream size                              : 3.93 GiB (91%)

Audio
ID                                       : 5426 (0x1532)
Menu ID                                  : 1 (0x1)
Format                                   : AC-3
Format/Info                              : Audio Coding 3
Mode extension                           : CM (complete main)
Format settings, Endianness              : Big
Codec ID                                 : 6
Duration                                 : 48 min 47 s
Bit rate mode                            : Constant
Bit rate                                 : 448 kb/s
Channel(s)                               : 6 channels
Channel positions                        : Front: L C R, Side: L R, LFE
Sampling rate                            : 48.0 kHz
Frame rate                               : 31.250 FPS (1536 spf)
Bit depth                                : 16 bits
Compression mode                         : Lossy
Stream size                              : 156 MiB (4%)
Language                                 : German
Download
***Hidden content cannot be quoted.***
thanks