FEED Ellie Goulding - Glastonbury 2016 (FEED-1080)-HDMania

NCURBAN

Well-Known Member
Administrative
May 25, 2016
3,360
4,185
113
Ellie Goulding - Glastonbury 2016 (FEED-1080)-HDMania


Setlist:
  1. Intro (Delirium)
  2. Aftertaste
  3. Outside (Calvin Harris cover)
  4. Burn
  5. Devotion (acoustic)
  6. Keep on Dancin'
  7. Don't Need Nobody
  8. Figure 8
  9. On My Mind
  10. I Need Your Love (Calvin Harris cover)
  11. Anything Could Happen
  12. Love Me Like You Do
Code:
Format                                   : MPEG-TS
File size                                : 5.57 GiB
Duration                                 : 1h 1mn
Overall bit rate mode                    : Variable
Overall bit rate                         : 12.9 Mbps

Video
ID                                       : 33 (0x21)
Menu ID                                  : 1 (0x1)
Format                                   : AVC
Format/Info                              : Advanced Video Codec
Format profile                           : High@L4.1
Format settings, CABAC                   : Yes
Format settings, ReFrames                : 4 frames
Format settings, GOP                     : M=4, N=32
Codec ID                                 : 27
Duration                                 : 1h 1mn
Bit rate                                 : 11.2 Mbps
Width                                    : 1 920 pixels
Height                                   : 1 080 pixels
Display aspect ratio                     : 16:9
Frame rate                               : 25.000 fps
Color space                              : YUV
Chroma subsampling                       : 4:2:0
Bit depth                                : 8 bits
Scan type                                : Interlaced
Scan order                               : Top Field First
Bits/(Pixel*Frame)                       : 0.216
Stream size                              : 4.84 GiB (87%)
Color range                              : Limited
Color primaries                          : BT.709
Transfer characteristics                 : BT.709
Matrix coefficients                      : BT.709

Audio #1
ID                                       : 34 (0x22)
Menu ID                                  : 1 (0x1)
Format                                   : MPEG Audio
Format version                           : Version 1
Format profile                           : Layer 2
Codec ID                                 : 3
Duration                                 : 1h 1mn
Bit rate mode                            : Constant
Bit rate                                 : 256 Kbps
Channel(s)                               : 2 channels
Sampling rate                            : 48.0 KHz
Compression mode                         : Lossy
Delay relative to video                  : -671ms
Stream size                              : 113 MiB (2%)
Language                                 : English

Audio #2
ID                                       : 35 (0x23)
Menu ID                                  : 1 (0x1)
Format                                   : MPEG Audio
Format version                           : Version 1
Format profile                           : Layer 2
Codec ID                                 : 3
Duration                                 : 1h 1mn
Bit rate mode                            : Constant
Bit rate                                 : 256 Kbps
Channel(s)                               : 2 channels
Sampling rate                            : 48.0 KHz
Compression mode                         : Lossy
Delay relative to video                  : -751ms
Stream size                              : 113 MiB (2%)
Language                                 : English

Audio #3
ID                                       : 36 (0x24)
Menu ID                                  : 1 (0x1)
Format                                   : MPEG Audio
Format version                           : Version 1
Format profile                           : Layer 2
Codec ID                                 : 3
Duration                                 : 1h 1mn
Bit rate mode                            : Constant
Bit rate                                 : 256 Kbps
Channel(s)                               : 2 channels
Sampling rate                            : 48.0 KHz
Compression mode                         : Lossy
Delay relative to video                  : -751ms
Stream size                              : 113 MiB (2%)
Language                                 : English

Audio #4
ID                                       : 37 (0x25)
Menu ID                                  : 1 (0x1)
Format                                   : MPEG Audio
Format version                           : Version 1
Format profile                           : Layer 2
Codec ID                                 : 3
Duration                                 : 1h 1mn
Bit rate mode                            : Constant
Bit rate                                 : 256 Kbps
Channel(s)                               : 2 channels
Sampling rate                            : 48.0 KHz
Compression mode                         : Lossy
Delay relative to video                  : -711ms
Stream size                              : 113 MiB (2%)
Language                                 : English

Menu
ID                                       : 32 (0x20)
Menu ID                                  : 1 (0x1)
Duration                                 : 1h 1mn
List                                     : 33 (0x21) (AVC) / 34 (0x22) (MPEG Audio, English) / 35 (0x23) (MPEG Audio, English) / 36 (0x24) (MPEG Audio, English) / 37 (0x25) (MPEG Audio, English)
Language                                 :  / English / English / English / English
Maximum bit rate                         : 200000000

Download
[HIDE-REPLY]MEGA[/HIDE-REPLY]