ProRes Ellie Goulding - Something In The Way You Move [2160p-Master]

NCURBAN

Well-Known Member
Administrative
May 25, 2016
3,347
3,858
113
Ellie Goulding - Something In The Way You Move [2160p-Master]


Gener: Pop
Released: Feb 23, 2016
Copyright:(C) 2016 Polydor Ltd. (UK)
Code:
Format                                   : MPEG-4
Format profile                           : QuickTime
Codec ID                                 : qt   2005.03 (qt  )
File size                                : 7.89 GiB
Duration                                 : 3 min 50 s
Overall bit rate mode                    : Variable
Overall bit rate                         : 293 Mb/s
Encoded date                             : UTC 2016-03-08 21:16:38
Tagged date                              : UTC 2016-03-08 21:26:05
Writing library                          : Apple QuickTime
©TIM                                     : 09:59:59:16
©TSC                                     : 24000
©TSZ                                     : 1001

Video
ID                                       : 1
Format                                   : ProRes
Format version                           : Version 0
Format profile                           : 422 LT
Codec ID                                 : apcs
Duration                                 : 3 min 50 s
Bit rate mode                            : Variable
Bit rate                                 : 293 Mb/s
Width                                    : 4 096 pixels
Height                                   : 2 160 pixels
Display aspect ratio                     : 1.896
Frame rate mode                          : Constant
Frame rate                               : 23.976 (24000/1001) FPS
Color space                              : YUV
Chroma subsampling                       : 4:2:2
Scan type                                : Progressive
Bits/(Pixel*Frame)                       : 1.382
Stream size                              : 7.88 GiB (100%)
Writing library                          : Apple
Language                                 : English
Encoded date                             : UTC 2016-03-08 21:16:38
Tagged date                              : UTC 2016-03-08 21:26:05
Color primaries                          : BT.709
Transfer characteristics                 : BT.709
Matrix coefficients                      : BT.709

Audio
ID                                       : 2
Format                                   : AAC
Format/Info                              : Advanced Audio Codec
Format profile                           : LC
Codec ID                                 : 40
Duration                                 : 3 min 50 s
Source duration                          : 3 min 50 s
Bit rate mode                            : Constant
Bit rate                                 : 128 kb/s
Channel(s)                               : 2 channels
Channel positions                        : Front: L R
Sampling rate                            : 48.0 kHz
Frame rate                               : 46.875 FPS (1024 spf)
Compression mode                         : Lossy
Stream size                              : 3.52 MiB (0%)
Source stream size                       : 3.52 MiB (0%)
Language                                 : English
Encoded date                             : UTC 2016-03-08 21:16:38
Tagged date                              : UTC 2016-03-08 21:26:05
Download
You must reply before you can see the hidden data contained here.
 

Natt

Member
Registered
Jun 11, 2018
56
0
6
21
Ellie Goulding - Something In The Way You Move [2160p-Master]



Code:
Format                                   : MPEG-4
Format profile                           : QuickTime
Codec ID                                 : qt   2005.03 (qt  )
File size                                : 7.89 GiB
Duration                                 : 3 min 50 s
Overall bit rate mode                    : Variable
Overall bit rate                         : 293 Mb/s
Encoded date                             : UTC 2016-03-08 21:16:38
Tagged date                              : UTC 2016-03-08 21:26:05
Writing library                          : Apple QuickTime
©TIM                                     : 09:59:59:16
©TSC                                     : 24000
©TSZ                                     : 1001

Video
ID                                       : 1
Format                                   : ProRes
Format version                           : Version 0
Format profile                           : 422 LT
Codec ID                                 : apcs
Duration                                 : 3 min 50 s
Bit rate mode                            : Variable
Bit rate                                 : 293 Mb/s
Width                                    : 4 096 pixels
Height                                   : 2 160 pixels
Display aspect ratio                     : 1.896
Frame rate mode                          : Constant
Frame rate                               : 23.976 (24000/1001) FPS
Color space                              : YUV
Chroma subsampling                       : 4:2:2
Scan type                                : Progressive
Bits/(Pixel*Frame)                       : 1.382
Stream size                              : 7.88 GiB (100%)
Writing library                          : Apple
Language                                 : English
Encoded date                             : UTC 2016-03-08 21:16:38
Tagged date                              : UTC 2016-03-08 21:26:05
Color primaries                          : BT.709
Transfer characteristics                 : BT.709
Matrix coefficients                      : BT.709

Audio
ID                                       : 2
Format                                   : AAC
Format/Info                              : Advanced Audio Codec
Format profile                           : LC
Codec ID                                 : 40
Duration                                 : 3 min 50 s
Source duration                          : 3 min 50 s
Bit rate mode                            : Constant
Bit rate                                 : 128 kb/s
Channel(s)                               : 2 channels
Channel positions                        : Front: L R
Sampling rate                            : 48.0 kHz
Frame rate                               : 46.875 FPS (1024 spf)
Compression mode                         : Lossy
Stream size                              : 3.52 MiB (0%)
Source stream size                       : 3.52 MiB (0%)
Language                                 : English
Encoded date                             : UTC 2016-03-08 21:16:38
Tagged date                              : UTC 2016-03-08 21:26:05
Download
***Hidden content cannot be quoted.***
 

Suzuta

Member
Registered
Nov 3, 2018
47
1
8
32
Ellie Goulding - Something In The Way You Move [2160p-Master]



Code:
Format                                   : MPEG-4
Format profile                           : QuickTime
Codec ID                                 : qt   2005.03 (qt  )
File size                                : 7.89 GiB
Duration                                 : 3 min 50 s
Overall bit rate mode                    : Variable
Overall bit rate                         : 293 Mb/s
Encoded date                             : UTC 2016-03-08 21:16:38
Tagged date                              : UTC 2016-03-08 21:26:05
Writing library                          : Apple QuickTime
©TIM                                     : 09:59:59:16
©TSC                                     : 24000
©TSZ                                     : 1001

Video
ID                                       : 1
Format                                   : ProRes
Format version                           : Version 0
Format profile                           : 422 LT
Codec ID                                 : apcs
Duration                                 : 3 min 50 s
Bit rate mode                            : Variable
Bit rate                                 : 293 Mb/s
Width                                    : 4 096 pixels
Height                                   : 2 160 pixels
Display aspect ratio                     : 1.896
Frame rate mode                          : Constant
Frame rate                               : 23.976 (24000/1001) FPS
Color space                              : YUV
Chroma subsampling                       : 4:2:2
Scan type                                : Progressive
Bits/(Pixel*Frame)                       : 1.382
Stream size                              : 7.88 GiB (100%)
Writing library                          : Apple
Language                                 : English
Encoded date                             : UTC 2016-03-08 21:16:38
Tagged date                              : UTC 2016-03-08 21:26:05
Color primaries                          : BT.709
Transfer characteristics                 : BT.709
Matrix coefficients                      : BT.709

Audio
ID                                       : 2
Format                                   : AAC
Format/Info                              : Advanced Audio Codec
Format profile                           : LC
Codec ID                                 : 40
Duration                                 : 3 min 50 s
Source duration                          : 3 min 50 s
Bit rate mode                            : Constant
Bit rate                                 : 128 kb/s
Channel(s)                               : 2 channels
Channel positions                        : Front: L R
Sampling rate                            : 48.0 kHz
Frame rate                               : 46.875 FPS (1024 spf)
Compression mode                         : Lossy
Stream size                              : 3.52 MiB (0%)
Source stream size                       : 3.52 MiB (0%)
Language                                 : English
Encoded date                             : UTC 2016-03-08 21:16:38
Tagged date                              : UTC 2016-03-08 21:26:05
Download
***Hidden content cannot be quoted.***
 

xxtenexx

Member
Registered
Dec 1, 2018
106
1
18
25
Ellie Goulding - Something In The Way You Move [2160p-Master]



Code:
Format                                   : MPEG-4
Format profile                           : QuickTime
Codec ID                                 : qt   2005.03 (qt  )
File size                                : 7.89 GiB
Duration                                 : 3 min 50 s
Overall bit rate mode                    : Variable
Overall bit rate                         : 293 Mb/s
Encoded date                             : UTC 2016-03-08 21:16:38
Tagged date                              : UTC 2016-03-08 21:26:05
Writing library                          : Apple QuickTime
©TIM                                     : 09:59:59:16
©TSC                                     : 24000
©TSZ                                     : 1001

Video
ID                                       : 1
Format                                   : ProRes
Format version                           : Version 0
Format profile                           : 422 LT
Codec ID                                 : apcs
Duration                                 : 3 min 50 s
Bit rate mode                            : Variable
Bit rate                                 : 293 Mb/s
Width                                    : 4 096 pixels
Height                                   : 2 160 pixels
Display aspect ratio                     : 1.896
Frame rate mode                          : Constant
Frame rate                               : 23.976 (24000/1001) FPS
Color space                              : YUV
Chroma subsampling                       : 4:2:2
Scan type                                : Progressive
Bits/(Pixel*Frame)                       : 1.382
Stream size                              : 7.88 GiB (100%)
Writing library                          : Apple
Language                                 : English
Encoded date                             : UTC 2016-03-08 21:16:38
Tagged date                              : UTC 2016-03-08 21:26:05
Color primaries                          : BT.709
Transfer characteristics                 : BT.709
Matrix coefficients                      : BT.709

Audio
ID                                       : 2
Format                                   : AAC
Format/Info                              : Advanced Audio Codec
Format profile                           : LC
Codec ID                                 : 40
Duration                                 : 3 min 50 s
Source duration                          : 3 min 50 s
Bit rate mode                            : Constant
Bit rate                                 : 128 kb/s
Channel(s)                               : 2 channels
Channel positions                        : Front: L R
Sampling rate                            : 48.0 kHz
Frame rate                               : 46.875 FPS (1024 spf)
Compression mode                         : Lossy
Stream size                              : 3.52 MiB (0%)
Source stream size                       : 3.52 MiB (0%)
Language                                 : English
Encoded date                             : UTC 2016-03-08 21:16:38
Tagged date                              : UTC 2016-03-08 21:26:05
Download
***Hidden content cannot be quoted.***