HDTV Enrique Iglesias - Concert in Batumi MTV HD Live Georgia (HDTV-1080i)-HDMania

NCURBAN

Well-Known Member
Administrative
May 25, 2016
3,347
3,634
113
Enrique Iglesias - Concert in Batumi MTV HD Live Georgia (HDTV-1080i)-HDMania


Setlist:
  • Soon
Code:
Format                                   : Matroska
Format version                           : Version 2
File size                                : 3.55 GiB
Duration                                 : 42mn 51s
Overall bit rate mode                    : Variable
Overall bit rate                         : 11.8 Mbps
Encoded date                             : UTC 2011-12-20 18:34:27
Writing application                      : mkvmerge v2.9.7 ('Tenderness') built on Jul  1 2009 18:43:35
Writing library                          : libebml v0.7.7 + libmatroska v0.8.1

Video
ID                                       : 1
Format                                   : AVC
Format/Info                              : Advanced Video Codec
Format profile                           : Main@L4
Format settings, CABAC                   : Yes
Format settings, ReFrames                : 4 frames
Codec ID                                 : V_MPEG4/ISO/AVC
Duration                                 : 42mn 51s
Bit rate mode                            : Variable
Bit rate                                 : 11.2 Mbps
Maximum bit rate                         : 40.0 Mbps
Width                                    : 1 920 pixels
Height                                   : 1 080 pixels
Display aspect ratio                     : 16:9
Frame rate mode                          : Constant
Frame rate                               : 25.000 fps
Color space                              : YUV
Chroma subsampling                       : 4:2:0
Bit depth                                : 8 bits
Scan type                                : Interlaced
Scan order                               : Top Field First
Bits/(Pixel*Frame)                       : 0.216
Stream size                              : 3.36 GiB (95%)
Default                                  : Yes
Forced                                   : No
Color range                              : Limited
Color primaries                          : BT.709
Transfer characteristics                 : BT.709
Matrix coefficients                      : BT.709

Audio
ID                                       : 2
Format                                   : AC-3
Format/Info                              : Audio Coding 3
Mode extension                           : CM (complete main)
Format settings, Endianness              : Big
Codec ID                                 : A_AC3
Duration                                 : 42mn 51s
Bit rate mode                            : Constant
Bit rate                                 : 384 Kbps
Channel(s)                               : 2 channels
Channel positions                        : Front: L R
Sampling rate                            : 48.0 KHz
Compression mode                         : Lossy
Stream size                              : 118 MiB (3%)
Language                                 : English
Default                                  : Yes
Forced                                   : No

Download
[HIDE-REPLY]MEGA[/HIDE-REPLY]
 
  • Like
Reactions: kishan420

Donny

New Member
Registered
Feb 26, 2020
7
0
1
25
Enrique Iglesias - Concert in Batumi MTV HD Live Georgia (HDTV-1080i)-HDMania