1. If this is your first visit, be sure to check out the FAQ by clicking the link above. You may have to register before you can access the full forum. Follow the link above to Register. To start viewing messages, select the forum that you want to visit from the selection below.
    Dismiss Notice

FEED Fergie - Rock In Rio Lisboa 2016 (FEED-1080i)-HDMania

Discussion in 'Live Performances & Concerts' started by NCURBAN, Jun 13, 2016.

  1. NCURBAN

    NCURBAN Well-Known Member Administrative

    Joined:
    May 25, 2016
    Messages:
    2,728
    Likes Received:
    965
    Trophy Points:
    113
    Fergie - Rock In Rio Lisboa 2016 (FEED-1080i)-HDMania

    [​IMG]
    Setlist:
    1. Hungry
    2. You Already Know
    3. London Bridge
    4. Fergalicious
    5. L.A. Love (La La)
    6. Glamorous
    7. Big Girls Don't Cry
    8. Just Like You
    9. Start Me Up (The Rolling Stones cover)
    10. Black Dog (Led Zeppelin cover)
    11. Barracuda (Heart cover)
    12. Love is Pain (Joan Jett and the Blackhearts cover) ('Purple Rain' by Prince snippet)
    13. My Humps (The Black Eyed Peas song)
    14. Rock That Body (The Black Eyed Peas song)
    15. Don't Stop the Party (The Black Eyed Peas song)
    16. Party All the Time (The Black Eyed Peas song)
    17. A Little Party Never Killed Nobody (All We Got)
    18. Let's Get It Started (The Black Eyed Peas song)
    19. Imma Be (The Black Eyed Peas song)
    20. Hey Mama (David Guetta cover)
    21. Hey Mama (The Black Eyed Peas song)
    22. All of the Lights (Kanye West cover)
    23. Boom Boom Pow (The Black Eyed Peas song)
    24. Don't Phunk With My Heart (The Black Eyed Peas song)
    25. Meet Me Halfway (The Black Eyed Peas song)
    26. Pump It (The Black Eyed Peas song)
    27. The Time (The Dirty Bit) (The Black Eyed Peas song)
    28. Gettin' Over You (David Guetta cover)
    29. I Gotta Feeling (The Black Eyed Peas song)

    Code:
    Format : MPEG-TS
    File size : 6.47 GiB
    Duration : 1h 0mn
    Overall bit rate mode : Variable
    Overall bit rate : 15.4 Mbps
    
    Video
    ID : 512 (0x200)
    Menu ID : 1 (0x1)
    Format : AVC
    Format/Info : Advanced Video Codec
    Format profile : Main@L4
    Format settings, CABAC : Yes
    Format settings, ReFrames : 4 frames
    Format settings, GOP : M=3, N=15
    Codec ID : 27
    Duration : 1h 0mn
    Bit rate mode : Variable
    Bit rate : 14.2 Mbps
    Maximum bit rate : 14.5 Mbps
    Width : 1 920 pixels
    Height : 1 080 pixels
    Display aspect ratio : 16:9
    Frame rate : 25.000 fps
    Color space : YUV
    Chroma subsampling : 4:2:0
    Bit depth : 8 bits
    Scan type : MBAFF
    Scan type, store method : Interleaved fields
    Scan order : Top Field First
    Bits/(Pixel*Frame) : 0.274
    Stream size : 5.99 GiB (93%)
    Color range : Limited
    Color primaries : BT.709
    Transfer characteristics : BT.709
    Matrix coefficients : BT.709
    
    Audio
    ID : 4112 (0x1010)
    Menu ID : 1 (0x1)
    Format : MPEG Audio
    Format version : Version 1
    Format profile : Layer 2
    Mode : Dual mono
    Codec ID : 3
    Duration : 1h 0mn
    Bit rate mode : Constant
    Bit rate : 384 Kbps
    Channel(s) : 2 channels
    Sampling rate : 48.0 KHz
    Compression mode : Lossy
    Delay relative to video : 12ms
    Stream size : 165 MiB (2%)
    Language : English
    Language, more info : Clean effects

    Download
    Hidden Content:
    You must reply before you can see the hidden data contained here.
     
    Last edited: Jun 13, 2016
  2. Loading...


  3. Phill

    Phill Member Registered

    Joined:
    Mar 24, 2019
    Messages:
    41
    Likes Received:
    0
    Trophy Points:
    6
    gracias por los videos