HDTV Fifth Harmony - All in My Head (Flex) [The Voice Australia 2016] (HDTV-1080i)-fisherTW

NCURBAN

Well-Known Member
Administrative
May 25, 2016
3,347
3,593
113
Fifth Harmony - All in My Head (Flex) [The Voice Australia 2016] (HDTV-1080i)-fisherTW



Code:
Format                                   : MPEG-TS
File size                                : 234 MiB
Duration                                 : 5mn 2s
Overall bit rate mode                    : Variable
Overall bit rate                         : 6 478 Kbps

Video
ID                                       : 513 (0x201)
Menu ID                                  : 1 (0x1)
Format                                   : AVC
Format/Info                              : Advanced Video Codec
Format profile                           : High@L4
Format settings, CABAC                   : Yes
Format settings, ReFrames                : 4 frames
Codec ID                                 : 27
Duration                                 : 5mn 2s
Bit rate                                 : 5 705 Kbps
Width                                    : 1 920 pixels
Height                                   : 1 080 pixels
Display aspect ratio                     : 16:9
Frame rate                               : 25.000 fps
Color space                              : YUV
Chroma subsampling                       : 4:2:0
Bit depth                                : 8 bits
Scan type                                : Interlaced
Scan order                               : Top Field First
Bits/(Pixel*Frame)                       : 0.110
Stream size                              : 206 MiB (88%)
Color range                              : Limited
Color primaries                          : BT.709
Transfer characteristics                 : BT.709
Matrix coefficients                      : BT.709

Audio
ID                                       : 650 (0x28A)
Menu ID                                  : 1 (0x1)
Format                                   : AC-3
Format/Info                              : Audio Coding 3
Mode extension                           : CM (complete main)
Format settings, Endianness              : Big
Codec ID                                 : 6
Duration                                 : 5mn 2s
Bit rate mode                            : Constant
Bit rate                                 : 448 Kbps
Channel(s)                               : 6 channels
Channel positions                        : Front: L C R, Side: L R, LFE
Sampling rate                            : 48.0 KHz
Compression mode                         : Lossy
Stream size                              : 16.1 MiB (7%)
Language                                 : English

Text
ID                                       : 577 (0x241)-801
Menu ID                                  : 1 (0x1)
Format                                   : Teletext Subtitle
Language                                 : English

Menu
ID                                       : 256 (0x100)
Menu ID                                  : 1 (0x1)
Duration                                 : 5mn 2s
List                                     : 513 (0x201) (AVC) / 650 (0x28A) (AC-3, English) / 577 (0x241) ()
Language                                 :  / English

Download
You must reply before you can see the hidden data contained here.